Login
Username:
Password:
[Signup]
[Recover Account]


Browse Torrents

Poll


You must be logged in to view polls



Latest Torrents
Puzzle.2018.HDRip....
- [Size: 1.43 GB]

5 Weddings (2018) ...
- [Size: 698.51 MB]

Crazy.Rich.Asians....
- [Size: 3.20 GB]

BigBoss.S12.Ep41.1...
- [Size: 3.50 GB]

Puzzle.2018.HDRip....
- [Size: 1.43 GB]


Torrent Details For "100 Days Of Love (2018) Hindi Dubbed WEB-HD x264 AAC 480p 400MB MKV[HDFilmBoss.Com]"

100 Days Of Love (2018) Hindi Dubbed WEB-HD x264 AAC 480p 400MB MKV[HDFilmBoss.Com]

Download this torrent | Magnet Download
Health:
Seeds: 0
Leechers: 2
Completed:
Last Checked: 29-06-2018 08:31:38
External Torrent
Update Stats



Images Host

Poster


iMDB
Imdb Picture Title: 100 Days of Love
Year: 2015
Runtime: 153 minutes
Votes: 1208
Rating: 6.5/10
Language: Malayalam
Country: India
All Genres: Comedy, Romance
Plot Outline: A man, who just got dumped, falls in love with another girl who he bullied in his childhood.
Director: Jenuse Mohammed
Writing By: Jenuse Mohammed,
Music: Govind Menon
Cast:
Dulquer Salmaan as Balan K. Nair / Rocky K. Nair
Nithya Menon as Sheela
Sekhar Menon as Ummar
Aju Varghese as Romanch
Vineeth as


Watch-Free-HD     Download

Details
Name:100 Days Of Love (2018) Hindi Dubbed WEB-HD x264 AAC 480p 400MB MKV[HDFilmBoss.Com]
Description:
General
Complete name                            : 100 Days Of Love (2018) Hindi Dubbed WEB-HD x264 AAC 480p 400MB MKV[HDFilmBoss.Com].MP4
Format                                   : MPEG-4
Format profile                           : Base Media / Version 2
Codec ID                                 : mp42 (isom/mp42)
File size                                : 408 MiB
Duration                                 : 1 h 45 min
Overall bit rate mode                    : Variable
Overall bit rate                         : 539 kb/s
Encoded date                             : UTC 2018-03-28 11:00:46
Tagged date                              : UTC 2018-03-28 11:00:46

Video
ID                                       : 1
Format                                   : AVC
Format/Info                              : Advanced Video Codec
Format profile                           : [email protected]
Format settings                          : 1 Ref Frames
Format settings, CABAC                   : No
Format settings, RefFrames               : 1 frame
Codec ID                                 : avc1
Codec ID/Info                            : Advanced Video Coding
Duration                                 : 1 h 45 min
Duration_LastFrame                       : -1 ms
Bit rate                                 : 441 kb/s
Width                                    : 640 pixels
Height                                   : 360 pixels
Display aspect ratio                     : 16:9
Frame rate mode                          : Constant
Frame rate                               : 29.970 (30000/1001) FPS
Color space                              : YUV
Chroma subsampling                       : 4:2:0
Bit depth                                : 8 bits
Scan type                                : Progressive
Bits/(Pixel*Frame)                       : 0.064
Stream size                              : 334 MiB (82%)
Title                                    : ISO
Encoded date                             : UTC 2018-03-28 11:00:46
Tagged date                              : UTC 2018-03-28 11:00:46
Color range                              : Limited
Color primaries                          : BT.709
Transfer characteristics                 : BT.709
Matrix coefficients                      : BT.709

Audio
ID                                       : 2
Format                                   : AAC
Format/Info                              : Advanced Audio Codec
Format profile                           : LC
Codec ID                                 : mp4a-40-2
Duration                                 : 1 h 45 min
Bit rate mode                            : Variable
Bit rate                                 : 96.0 kb/s
Channel(s)                               : 2 channels
Channel positions                        : Front: L R
Sampling rate                            : 44.1 kHz
Frame rate                               : 43.066 FPS (1024 SPF)
Compression mode                         : Lossy
Stream size                              : 72.6 MiB (18%)
Title                                    : ISO Media file produced by Google Inc. Created on: 03/28/2018.
Encoded date                             : UTC 2018-03-28 11:00:46
Tagged date                              : UTC 2018-03-28 11:00:46
 http://i.imgur.com/nsAvENM.jpg?1
Category:Movies > Bollywood
Lang:Hindi
Total Size:408.10 MB
Info Hash:ed673f19b4a4fba110992cd544b6289cde3dbbd1
Added By:hdfilmboss
Date Added:28-03-2018 13:51:39
Downloads:797

Ratings:Not Yet Rated (Log in to rate it)


Tracker:
udp://tracker.coppersurfer.tk:6969/announce


File List: 


Comments

No comments still posted

Top
Copyright 2018 DownloadHD -|- Page Generated In 0.255318 secs.
-|- RSS Feed -|- Feed Info