Login
Username:
Password:
[Signup]
[Recover Account]


Browse Torrents

Poll


You must be logged in to view polls



Latest Torrents
18+ DAD FRIEND (20...
- [Size: 579.60 MB]

Rita Ora - Phoenix...
- [Size: 129.09 MB]

Batti Gul Meter Ch...
- [Size: 1.54 GB]

James.Corden.2018....
- [Size: 627.02 MB]

Stephen.Colbert.20...
- [Size: 649.06 MB]


Torrent Details For "Raa Raa (2018) Telugu HDRip x264 AAC AC3 700MB MKV[HDFilmBoss]"

Raa Raa (2018) Telugu HDRip x264 AAC AC3 700MB MKV[HDFilmBoss]

Download this torrent | Magnet Download
Health:
Seeds: 0
Leechers: 5
Completed:
Last Checked: 26-03-2018 15:11:29
External Torrent
Update Stats



Images Host

Poster


iMDB
Title: Raa Raa
Year: 2018
Language: Telugu
Country: India
Director: Shankar

Cast:
Ali as
Raghu Babu as
Chammak Chandra as
Jeeva as
Raghu Kumar Karumanchi as
Sita Narayan as
Naziya as
Krishna Murali Posani as
Prudhviraj as
Shakalaka Shankar as


Watch-Free-HD     Download

Details
Name:Raa Raa (2018) Telugu HDRip x264 AAC AC3 700MB MKV[HDFilmBoss]
Description:
General
Unique ID                                : 202872725282809296429196785979274547196 (0x989FDD9B61484C67B7207AC7BC03CFFC)
Complete name                            : C:Raa Raa (2018) Telugu HDRip x264 AAC AC3 700MB-HDFilmBoss.Com.mkv
Format                                   : Matroska
Format version                           : Version 4 / Version 2
File size                                : 691 MiB
Duration                                 : 2 h 24 min
Overall bit rate mode                    : Variable
Overall bit rate                         : 669 kb/s


Video
ID                                       : 1
Format                                   : AVC
Format/Info                              : Advanced Video Codec
Format profile                           : [email protected]
Format settings                          : CABAC / 4 Ref Frames
Format settings, CABAC                   : Yes
Format settings, RefFrames               : 4 frames
Codec ID                                 : V_MPEG4/ISO/AVC
Duration                                 : 2 h 24 min
Bit rate                                 : 582 kb/s
Width                                    : 720 pixels
Height                                   : 304 pixels
Display aspect ratio                     : 2.35:1
Frame rate mode                          : Constant
Frame rate                               : 24.000 FPS
Color space                              : YUV
Chroma subsampling                       : 4:2:0
Bit depth                                : 8 bits
Scan type                                : Progressive
Bits/(Pixel*Frame)                       : 0.111
Stream size                              : 601 MiB (87%)
Title                                    :
Writing library                          : x264
Language                                 : Telugu
Default                                  : Yes
Forced                                   : No

Audio
ID                                       : 2
Format                                   : MPEG Audio
Format version                           : Version 1
Format profile                           : Layer 3
Format settings                          : Joint stereo / MS Stereo
Codec ID                                 : A_MPEG/L3
Codec ID/Hint                            : MP3
Duration                                 : 2 h 24 min
Bit rate mode                            : Variable
Bit rate                                 : 85.0 kb/s
Nominal bit rate                         : 96.0 kb/s
Channel(s)                               : 2 channels
Sampling rate                            : 44.1 kHz
Frame rate                               : 38.281 FPS (1152 SPF)
Compression mode                         : Lossy
Stream size                              : 87.7 MiB (13%)
Title                                    : www.TamilMV.cam
Writing library                          : LAME3.99r
Encoding settings                        : -m j -V 4 -q 3 -lowpass 15.1 --abr 96
Language                                 : Telugu
Default                                  : Yes
Forced                                   : No



Category:Movies > Telugu
Lang:Telugu
Total Size:690.67 MB
Info Hash:a94d9305c7d5f039f8631580e419790b218d042b
Added By:hdfilmboss
Date Added:26-03-2018 14:17:13
Downloads:278

Ratings:Not Yet Rated (Log in to rate it)


Tracker:
udp://tracker.coppersurfer.tk:6969/announce


File List: 


Comments

No comments still posted

Top
Copyright 2018 DownloadHD -|- Page Generated In 0.217084 secs.
-|- RSS Feed -|- Feed Info
UK shops | The Good Place | Beholder (2016) GOG [MULTI PC]