Login
Username:
Password:
[Signup]
[Recover Account]


Browse Torrents

Poll


You must be logged in to view polls



Latest Torrents
Tigers (2018) Hind...
- [Size: 698.80 MB]

Real.Country.S01E0...
- [Size: 579.76 MB]

Padmaavat.2018 72...
- [Size: 2.99 GB]

TMZ.on.TV.2018.11....
- [Size: 160.78 MB]

New.Amsterdam.2018...
- [Size: 217.38 MB]


Torrent Details For "I Love You (2007) Movie 720p AVC 2-Channel Audio -Release By HDprintMovies"

I Love You (2007) Movie 720p AVC 2-Channel Audio -Release By HDprintMovies

Download this torrent | Magnet Download
Health:
Seeds: 0
Leechers: 2
Completed:
Last Checked: 28-04-2018 07:02:25
External Torrent
Update Stats



Images Host

Poster


iMDB
Imdb Picture Title: I Love You
Year: 2007
Runtime: 150 minutes
Votes: 108
Rating: 5.6/10
Language: Bengali
Country: India
All Genres: Romance
Plot Outline: A rich young man must prove his love for a simple village belle; she is humiliated by his family, so he opts to rusticate with hers.
Director: Rabi Kinagi
Writing By: Rabi Kinagi,Veeru Potla,N.K. Salil,
Produced By: Sushil Maheshwari,
Music: Jeet Gannguli
Cast:
Tapas Pal as Pooja's Elder brother
Dev as Rahul
Payel Sarkar as Pooja
Arun Mukherjee as Rahul's father
Anuradha Roy as Rahul's mother
Subhasish Mukherjee as Rahul friend
Rajatabha Dutta as Mona's father
Kamalika Banerjee as Mona's mother
Gita Nag as
Dalia Banerjee as


Watch-Free-HD     Download

Details
Name:I Love You (2007) Movie 720p AVC 2-Channel Audio -Release By HDprintMovies
Description:


Complete name                            : I Love You - Movies - Originals.MP4
Format                                   : MPEG-4
Format profile                           : Base Media
Codec ID                                 : isom (isom/iso2/avc1/mp41)
File size                                : 1.79 GiB
Duration                                 : 2 h 37 min
Overall bit rate                         : 1 623 kb/s
Writing application                      : Lavf57.65.100

Video
ID                                       : 1
Format                                   : AVC
Format/Info                              : Advanced Video Codec
Format profile                           : [email protected]
Format settings                          : CABAC / 8 Ref Frames
Format settings, CABAC                   : Yes
Format settings, RefFrames               : 8 frames
Codec ID                                 : avc1
Codec ID/Info                            : Advanced Video Coding
Duration                                 : 2 h 37 min
Bit rate                                 : 1 489 kb/s
Width                                    : 1 280 pixels
Height                                   : 720 pixels
Display aspect ratio                     : 16:9
Frame rate mode                          : Variable
Frame rate                               : 24.000 FPS
Minimum frame rate                       : 23.256 FPS
Maximum frame rate                       : 24.390 FPS
Color space                              : YUV
Chroma subsampling                       : 4:2:0
Bit depth                                : 8 bits
Scan type                                : Progressive
Bits/(Pixel*Frame)                       : 0.067
Stream size                              : 1.64 GiB (92%)

Audio
ID                                       : 2
Format                                   : AAC
Format/Info                              : Advanced Audio Codec
Format profile                           : LC
Codec ID                                 : mp4a-40-2
Duration                                 : 2 h 37 min
Duration_LastFrame                       : 17 ms
Bit rate mode                            : Constant
Bit rate                                 : 128 kb/s
Channel(s)                               : 2 channels
Channel positions                        : Front: L R
Sampling rate                            : 48.0 kHz
Frame rate                               : 46.875 FPS (1024 SPF)
Compression mode                         : Lossy
Stream size                              : 144 MiB (8%)
Language                                 : English
Default                                  : Yes
Alternate group                          : 1









Category:Movies > Bengali
Lang:Bengali  Bengali
Total Size:1.79 GB
Info Hash:eb9c16d1bfe12a71b54e13c62020ac9ccabaa3d5
Added By:suman142
Date Added:26-03-2018 08:10:34
Downloads:418

Ratings:Not Yet Rated (Log in to rate it)


Tracker:
http://share.camoe.cn:8080/announce

This Torrent also has backup trackers
URLSeedersLeechersCompleted
http://share.camoe.cn:8080/announce000
http://t.nyaatracker.com:80/announce000
http://asnet.pw:2710/announce000
http://tracker.tfile.co:80/announce100
http://pt.lax.mx:80/announce000
http://tracker.bt-hash.com:443/announce000
http://grifon.info:80/announce000
http://retracker.spark-rostov.ru:80/announce000
http://tr.kxmp.cf:80/announce000
http://tracker.city9x.com:2710/announce000
http://tracker.tfile.me:80/announce100
http://retracker.telecom.by:80/announce000
http://tracker.electro-torrent.pl:80/announce000
http://open.kickasstracker.com:443/announce000
http://retracker.mgts.by:80/announce000
http://retracker.bashtel.ru:80/announce000
http://tracker.devil-torrents.pl:80/announce000
http://torrentsmd.eu:8080/announce000
http://ns349743.ip-91-121-106.eu:80/announce000
http://torrentsmd.me:8080/announce000
http://agusiq-torrents.pl:6969/announce000
http://fxtt.ru:80/announce000


File List: 


Comments

No comments still posted

Top
Copyright 2018 DownloadHD -|- Page Generated In 2.273171 secs.
-|- RSS Feed -|- Feed Info
KOF ALLSTAR | Granny APK | Danielle Brooks