Login
Username:
Password:
[Signup]
[Recover Account]


Browse Torrents

Poll


You must be logged in to view polls



Latest Torrents
A Turtle's Tale 2 ...
- [Size: 1.26 GB]

Ekon.Eken-[2018]-[...
- [Size: 1.99 GB]

Madras Cafe (2013)...
- [Size: 1.69 GB]

Crazy Frog - The B...
- [Size: 111.67 MB]

Beyond.The.Sky.201...
- [Size: 16.97 GB]


Torrent Details For "Guru Dakshina Bengali Movie 720p-HDprintMovies"

Guru Dakshina Bengali Movie 720p-HDprintMovies

Download this torrent | Magnet Download
Health:
Seeds: 0
Leechers: 7
Completed:
Last Checked: 01-04-2018 04:44:49
External Torrent
Update Stats



Images Host

Poster


Watch-Free-HD     Download

Details
Name:Guru Dakshina Bengali Movie 720p-HDprintMovies
Description:
Guru Dakshina Bengali Movie 720p-(Suman142)




Complete name                            : Guru Dakshina Bengali Movie 720p-(Suman142).mp4
Format                                   : MPEG-4
Format profile                           : Base Media
Codec ID                                 : isom (isom/iso2/avc1/mp41)
File size                                : 1.65 GiB
Duration                                 : 2 h 26 min
Overall bit rate                         : 1 607 kb/s
Writing application                      : Lavf57.65.100

Video
ID                                       : 1
Format                                   : AVC
Format/Info                              : Advanced Video Codec
Format profile                           : [email protected]
Format settings                          : CABAC / 8 Ref Frames
Format settings, CABAC                   : Yes
Format settings, RefFrames               : 8 frames
Codec ID                                 : avc1
Codec ID/Info                            : Advanced Video Coding
Duration                                 : 2 h 26 min
Bit rate                                 : 1 473 kb/s
Width                                    : 1 280 pixels
Height                                   : 720 pixels
Display aspect ratio                     : 16:9
Frame rate mode                          : Variable
Frame rate                               : 25.000 FPS
Minimum frame rate                       : 24.390 FPS
Maximum frame rate                       : 25.641 FPS
Color space                              : YUV
Chroma subsampling                       : 4:2:0
Bit depth                                : 8 bits
Scan type                                : Progressive
Bits/(Pixel*Frame)                       : 0.064
Stream size                              : 1.51 GiB (92%)

Audio
ID                                       : 2
Format                                   : AAC
Format/Info                              : Advanced Audio Codec
Format profile                           : LC
Codec ID                                 : mp4a-40-2
Duration                                 : 2 h 26 min
Duration_LastFrame                       : 6 ms
Bit rate mode                            : Constant
Bit rate                                 : 128 kb/s
Channel(s)                               : 2 channels
Channel positions                        : Front: L R
Sampling rate                            : 48.0 kHz
Frame rate                               : 46.875 FPS (1024 SPF)
Compression mode                         : Lossy
Stream size                              : 135 MiB (8%)
Language                                 : English
Default                                  : Yes
Alternate group                          : 1






zn/vlcsnap_2018_03_26_11h33m59s684.png" onclick="return false;">zn/vlcsnap_2018_03_26_11h33m59s684.png" class="resized" style="width:65em;height:auto;" />
Category:Movies > Bengali
Lang:Bengali  Bengali
Total Size:1.65 GB
Info Hash:ee5436bed0b417b3f5ce2002a8bbfdfff80b3001
Added By:suman142
Date Added:26-03-2018 07:21:49
Downloads:347

Ratings:Not Yet Rated (Log in to rate it)


Tracker:
http://share.camoe.cn:8080/announce

This Torrent also has backup trackers
URLSeedersLeechersCompleted
http://share.camoe.cn:8080/announce000
http://t.nyaatracker.com:80/announce010
http://asnet.pw:2710/announce000
http://tracker.tfile.co:80/announce100
http://pt.lax.mx:80/announce000
http://tracker.bt-hash.com:443/announce000
http://grifon.info:80/announce000
http://retracker.spark-rostov.ru:80/announce000
http://tr.kxmp.cf:80/announce000
http://tracker.city9x.com:2710/announce100
http://tracker.tfile.me:80/announce100
http://retracker.telecom.by:80/announce000
http://tracker.electro-torrent.pl:80/announce010
http://open.kickasstracker.com:443/announce100
http://retracker.mgts.by:80/announce000
http://retracker.bashtel.ru:80/announce000
http://tracker.devil-torrents.pl:80/announce000
http://torrentsmd.eu:8080/announce010
http://ns349743.ip-91-121-106.eu:80/announce000
http://torrentsmd.me:8080/announce010
http://agusiq-torrents.pl:6969/announce100
http://fxtt.ru:80/announce010


File List: 


Comments

No comments still posted

Top
Copyright 2018 DownloadHD -|- Page Generated In 1.889466 secs.
-|- RSS Feed -|- Feed Info
Hamartia | Thám Tử Lừng Danh Conan chap 457 | Atlas Shrugged III en Streaming