Login
Username:
Password:
[Signup]
[Recover Account]


Browse Torrents

Poll


You must be logged in to view polls



Latest Torrents
Fantastic Beasts T...
- [Size: 743.06 MB]

Speed Kills (2018)...
- [Size: 802.82 MB]

Videoman.2018.BDRi...
- [Size: 545.41 MB]

18+ A Taruna Khana...
- [Size: 131.00 MB]

Bad.Blood.2017.S02...
- [Size: 222.71 MB]


Torrent Details For "Everything.is.Illuminated.2005.1080p.WEBRip.DD5.1.x264-FGT"

Everything.is.Illuminated.2005.1080p.WEBRip.DD5.1.x264-FGT

Download this torrent | Magnet Download
Health:
Seeds: 0
Leechers: 4
Completed:
Last Checked: 30-08-2018 02:59:16
External Torrent
Update Stats



Images Host

Poster


iMDB
Imdb Picture Title: Everything Is Illuminated
Year: 2005
Runtime: 106 minutes
Votes: 52181
Rating: 7.5/10
Language: English, Russian, Ukrainian
Country: USA
All Genres: Comedy, Drama
Plot Outline: A young Jewish American man endeavors to find the woman who saved his grandfather during World War II in a Ukrainian village, that was ultimately razed by the Nazis, with the help of an eccentric local.
Tagline: Leave Normal Behind.
Director: Liev Schreiber
Writing By: Jonathan Safran Foer,Liev Schreiber,
Produced By: Kelley Cribben,Tom Karnowski,David Minkowski,Peter Saraf,Matthew Stillman,Marc Turtletaub,
Music: Paul Cantelon
Plot:

Jewish-American writer Jonathan Safran Foer is a collector of his family's memorabilia, although most of the items, some which he takes without asking, would not be considered keepsakes by the average person. He places most of those items in individual Ziploc bags, and hangs them on his keepsake wall under the photograph of the person to who it is most associated. He has this compulsion in an effort to remember. He is able to tie a photograph that he receives from his grandmother, Sabine Foer, on her deathbed - it of his grandfather, Safran Foer, during the war in the Ukraine, and a young woman he will learn is named Augustine - back to a pendant he stole from his grandfather on his deathbed in 1989, the pendant of a glass encased grasshopper. Learning that Augustine somehow saved his grandfather's life leads to Jonathan going on a quest to find out the story at its source where the photograph was taken, in a now non-existent and probably largely forgotten town called Trachimbrod that was razed by the Nazis during the war, he armed only with his limited knowledge, the pendant, his grandfather's Star of David necklace, the photograph, tip "money", and an old and largely outdated map. Prior to arriving in the Ukraine, Jonathan prearranges the guide services of Odessa-based Heritage Tours, which specializes in helping Jewish expats discover their past. The company is owned and operated by three generations of the Alexander Perchov family, who generally think Jewish people are stupid for wanting to revisit their past, and spend large sums of money for their services in doing so. The three from Heritage assigned to Jonathan's file are: the company founder Alexander I ("Grandpa"), the retired, non-blind blind man who will be the driver; his "seeing eye" dog, Sammy Davis Jr. Jr., a deranged bitch of a dog; and Alexander III ("Alex"), a western pop cultural loving young man, whose broken English will need to suffice for translation. Jonathan will learn that his guides are a loving but dysfunctional lot who have little interest in helping him beyond taking his money. But during their time together, this quest will affect Jonathan, Grandpa and Alex in different ways, all tied to the value of remembering.

- Written by Huggo

A young Jewish American flies to Ukraine in search of his grandfather's past. He has a photograph and the name of a village. He hires Odessa Heritage Tours, made up of a gruff old man and his English-speaking grandson. The three, plus grandfather's deranged dog, travel in an old car from Odessa into Ukraine's heart. Jonathan, the American, is a collector, putting things he finds into small plastic bags, so he will remember. Alex, the interpreter, is an archetypal wild and crazy guy. Alex asks the old man, "Was there anti-Semitism in the Ukraine before the war?" Will they find the village? The past illuminates everything.

- Written by <[email protected]>

A young Jewish American man endeavors to find the woman who saved his grandfather during World War II in a Ukrainian village, that was ultimately razed by the Nazis, with the help of an eccentric local.

- Written by Anonymous
Cast:
Eugene Hutz as Alex
Elijah Wood as Jonathan Safran Foer
Jonathan Safran Foer as Leaf Blower
Jana Hrabetova as Jonathan's Grandmother
Stephen Samudovsky as Jonathan's Grandfather Safran
Ljubomir Dezera as Young Jonathan
Oleksandr Choroshko as Alexander Perchov, Father
Gil Kazimirov as Igor
Zuzana Hodkova as Alex's Mother
Mikki as Sammy Davis Jr. Jr.


Watch-Free-HD     Download

Details
Name:Everything.is.Illuminated.2005.1080p.WEBRip.DD5.1.x264-FGT
Description:
MediaInfo

Video
ID                                       : 1
Format                                   : AVC
Format/Info                              : Advanced Video Codec
Format profile                           : [email protected]
Format settings, CABAC                   : Yes
Format settings, ReFrames                : 4 frames
Codec ID                                 : V_MPEG4/ISO/AVC
Duration                                 : 1h 45mn
Bit rate mode                            : Variable
Bit rate                                 : 10.1 Mbps
Maximum bit rate                         : 15.0 Mbps
Width                                    : 1 920 pixels
Height                                   : 1 080 pixels
Display aspect ratio                     : 16:9
Frame rate mode                          : Constant
Frame rate                               : 23.976 (24000/1001) fps
Color space                              : YUV
Chroma subsampling                       : 4:2:0
Bit depth                                : 8 bits
Scan type                                : Progressive
Bits/(Pixel*Frame)                       : 0.204
Stream size                              : 7.47 GiB (96%)
Writing library                          : x264 core 148 r2623 d5b2374
Encoding settings                        : cabac=1 / ref=4 / deblock=1:-1:-1 / analyse=0x3:0x133 / me=umh / subme=9 / psy=1 / psy_rd=1.00:0.15 / mixed_ref=1 / me_range=24 / chroma_me=1 / trellis=2 / 8x8dct=1 / cqm=0 / deadzone=21,11 / fast_pskip=1 / chroma_qp_offset=-3 / threads=34 / lookahead_threads=5 / sliced_threads=0 / nr=150 / decimate=1 / interlaced=0 / bluray_compat=0 / constrained_intra=0 / bframes=8 / b_pyramid=2 / b_adapt=2 / b_bias=0 / direct=3 / weightb=1 / open_gop=0 / weightp=2 / keyint=120 / keyint_min=61 / scenecut=0 / intra_refresh=0 / rc_lookahead=120 / rc=crf / mbtree=1 / crf=18.0 / qcomp=0.60 / qpmin=0 / qpmax=69 / qpstep=4 / vbv_maxrate=15000 / vbv_bufsize=31250 / crf_max=0.0 / nal_hrd=vbr / filler=0 / ip_ratio=1.40 / aq=3:1.00
Default                                  : Yes
Forced                                   : No
Color range                              : Limited
Color primaries                          : BT.709
Transfer characteristics                 : BT.709
Matrix coefficients                      : BT.709

Audio
ID                                       : 2
Format                                   : AC-3
Format/Info                              : Audio Coding 3
Mode extension                           : CM (complete main)
Format settings, Endianness              : Big
Codec ID                                 : A_AC3
Duration                                 : 1h 45mn
Bit rate mode                            : Constant
Bit rate                                 : 384 Kbps
Channel(s)                               : 6 channels
Channel positions                        : Front: L C R, Side: L R, LFE
Sampling rate                            : 48.0 KHz
Frame rate                               : 31.250 fps (1536 spf)
Compression mode                         : Lossy
Stream size                              : 290 MiB (4%)
Language                                 : English
Default                                  : No
Forced                                   : No

Text
ID                                       : 3
Format                                   : UTF-8
Codec ID                                 : S_TEXT/UTF8
Codec ID/Info                            : UTF-8 Plain Text
Duration                                 : 1h 40mn
Bit rate                                 : 32 bps
Count of elements                        : 774
Stream size                              : 23.8 KiB (0%)
Language                                 : English
Default                                  : No
Forced                                   : No

 
 
 
Category:Movies > WEB-HD
Lang:English  English
Total Size:7.76 GB
Info Hash:5ae6ae1c75a835f578ca111d698900235a2de54b
Added By:Agent47
Date Added:07-06-2017 00:25:35
Downloads:90

Ratings:Not Yet Rated (Log in to rate it)


Tracker:
http://tracker.trackerfix.com:80/announce


File List: 


Comments

No comments still posted

Top
Copyright 2018 DownloadHD -|- Page Generated In 0.403973 secs.
-|- RSS Feed -|- Feed Info
Ryan Conner | 2018-11-09 | Reproducir | CM Security Antivirus mod apk