Login
Username:
Password:
[Signup]
[Recover Account]


Browse Torrents

Poll


You must be logged in to view polls



Latest Torrents
Nightshift.2018.HD...
- [Size: 706.57 MB]

Jimmy.Fallon.2018....
- [Size: 579.69 MB]

Jimmy.Fallon.2018....
- [Size: 582.40 MB]

The.Voice.S15E25.X...
- [Size: 1.51 GB]

The.Voice.S15E25.W...
- [Size: 1.17 GB]


Torrent Details For "A Wrinkle in Time 2018 English HD-TS x264 AAC AC3 700MB MKV[HDFilmBoss.Com]"

A Wrinkle in Time 2018 English HD-TS x264 AAC AC3 700MB MKV[HDFilmBoss.Com]

Download this torrent | Magnet Download
Health:
Seeds: 0
Leechers: 0
Completed:
Last Checked: 14-12-2018 01:17:40
External Torrent
Update Stats



Images Host

Poster


iMDB
Imdb Picture Title: A Wrinkle in Time
Year: 2018
Runtime: 109 minutes
Votes: 8376
Rating: 4.2/10
Language: English
Country: USA
All Genres: Adventure, Family, Fantasy, Sci-Fi
Plot Outline: After the disappearance of her scientist father, three peculiar beings send Meg, her brother, and her friend to space in order to find him.
Tagline: Be a warrior
Director: Ava DuVernay
Writing By: Jennifer Lee,Jeff Stockwell,Madeleine L'Engle,
Produced By: Adam Borba,Catherine Hand,Douglas C. Merrifield,Jim Whitaker,
Music: Ramin Djawadi
Cast:
Storm Reid as Meg
Oprah Winfrey as Mrs. Which
Reese Witherspoon as Mrs. Whatsit
Mindy Kaling as Mrs. Who
Levi Miller as Calvin
Deric McCabe as Charles Wallace
Chris Pine as Mr. Murry
Gugu Mbatha-Raw as Mrs. Murry
Zach Galifianakis as Happy Medium
Michael Peña as Red
Trailers:
International Trailer
Official U.S. Trailer
Teaser Trailer


Watch-Free-HD     Download

Details
Name:A Wrinkle in Time 2018 English HD-TS x264 AAC AC3 700MB MKV[HDFilmBoss.Com]
Description:
General
Complete name                            : C:A Wrinkle in Time 2018 English HD-TS x264 AAC AC3 700MB MKV[HDFilmBoss.Com].mp4
Format                                   : MPEG-4
Format profile                           : Base Media
Codec ID                                 : isom (isom/iso2/avc1/mp41)
File size                                : 685 MiB
Duration                                 : 1 h 39 min
Overall bit rate                         : 959 kb/s
Writing application                      : Lavf57.83.100

Video
ID                                       : 1
Format                                   : AVC
Format/Info                              : Advanced Video Codec
Format profile                           : [email protected]
Format settings                          : CABAC / 4 Ref Frames
Format settings, CABAC                   : Yes
Format settings, RefFrames               : 4 frames
Codec ID                                 : avc1
Codec ID/Info                            : Advanced Video Coding
Duration                                 : 1 h 39 min
Bit rate                                 : 826 kb/s
Width                                    : 640 pixels
Height                                   : 300 pixels
Display aspect ratio                     : 2.135
Frame rate mode                          : Constant
Frame rate                               : 25.000 FPS
Color space                              : YUV
Chroma subsampling                       : 4:2:0
Bit depth                                : 8 bits
Scan type                                : Progressive
Bits/(Pixel*Frame)                       : 0.172
Stream size                              : 588 MiB (86%)
Writing library                          : x264

Audio
ID                                       : 2
Format                                   : AAC
Format/Info                              : Advanced Audio Codec
Format profile                           : LC
Codec ID                                 : mp4a-40-2
Duration                                 : 1 h 39 min
Bit rate mode                            : Constant
Bit rate                                 : 128 kb/s
Channel(s)                               : 2 channels
Channel positions                        : Front: L R
Sampling rate                            : 44.1 kHz
Frame rate                               : 43.066 FPS (1024 SPF)
Compression mode                         : Lossy
Stream size                              : 91.4 MiB (13%)
Default                                  : Yes
Alternate group                          : 1
 http://i.imgur.com/szODajP.jpg?1
Category:Movies > Pre-Releases
Lang:English  English
Total Size:684.64 MB
Info Hash:39ee645d9f20bb2876f5e5289bfab9342e105627
Added By:Anonymous
Date Added:24-03-2018 12:44:21
Downloads:106

Ratings:Not Yet Rated (Log in to rate it)


Tracker:
udp://9.rarbg.to:2770/announce


File List: 


Comments

<< Previous      Next >>
1 - 1

[Report] Posted: 24-03-2018 at 13:59:16
DownloadHD
Team DownloadHD


Site promotion is allowed here but not in torrent title nor in chatroom.You can paste or put yours site banner in torrent description.Thanks

1 - 1
<< Previous      Next >>


Top
Copyright 2018 DownloadHD -|- Page Generated In 0.521654 secs.
-|- RSS Feed -|- Feed Info
Samjho na5.56 | Badbakht Episode 08 - on ARY Zindagi in High Quality 17th April 2018 | Zoids: Genesis (50)