Login
Username:
Password:
[Signup]
[Recover Account]


Browse Torrents

Poll


You must be logged in to view polls



Latest Torrents
The.Conners.S01E08...
- [Size: 1.08 GB]

The.Voice.S15E24.X...
- [Size: 799.40 MB]

The.Voice.S15E24.W...
- [Size: 602.93 MB]

The.Voice.S15E24.7...
- [Size: 824.34 MB]

The.Voice.S15E24.W...
- [Size: 600.73 MB]


Torrent Details For "Hichki 2018 Hindi PRE x264 AAC 700MB[HDFilmBoss]"

Hichki 2018 Hindi PRE x264 AAC 700MB[HDFilmBoss]

Download this torrent | Magnet Download
Health:
Seeds: 0
Leechers: 0
Completed:
Last Checked: 30-11-2018 23:18:33
External Torrent
Update Stats



Images Host

Poster


iMDB
Imdb Picture Title: Hichki
Year: 2018
Runtime: 116 minutes
Votes: 50
Rating: 7.5/10
Language: Hindi, English
Country: India
All Genres: Comedy, Drama
Plot Outline: Hichki presents a positive and inspiring story about a woman who turns her biggest weakness into her biggest strength.
Director: Siddharth Malhotra
Writing By: Anckur Chaudhry,Siddharth Malhotra,Ambar Hadap,Ganesh Pandit,Anckur Chaudhry,
Produced By: Aditya Chopra,Bharat Rawail,Maneesh Sharma,Sanjay Shivalkar,Aashish Singh,Amit Tomar,
Music: Jasleen Royal Hitesh Sonik
Cast:
Rani Mukerji as Naina Mathur
Supriya Pilgaonkar as
Ivan Rodrigues as Principal
Asif Basra as
Shivkumar Subramaniam as
Harsh Mayar as Aatish
Kunal Shiinde as Supporting
Suprio Bose as Senior Male Teacher
Trailers:
Hichki Trailer


Watch-Free-HD     Download

Details
Name:Hichki 2018 Hindi PRE x264 AAC 700MB[HDFilmBoss]
Description:
General
Complete name                            : Hichki 2018 Hindi NR DVDRip x264 AAC 700MB[HDFilmBoss.Com].mp4
Format                                   : MPEG-4
Format profile                           : Base Media
Codec ID                                 : isom (isom/iso2/avc1/mp41)
File size                                : 729 MiB
Duration                                 : 1 h 53 min
Overall bit rate mode                    : Variable
Overall bit rate                         : 900 kb/s
Writing application                      : Lavf57.83.100

Video
ID                                       : 1
Format                                   : AVC
Format/Info                              : Advanced Video Codec
Format profile                           : [email protected]
Format settings                          : CABAC / 4 Ref Frames
Format settings, CABAC                   : Yes
Format settings, RefFrames               : 4 frames
Codec ID                                 : avc1
Codec ID/Info                            : Advanced Video Coding
Duration                                 : 1 h 53 min
Bit rate                                 : 767 kb/s
Width                                    : 1 024 pixels
Height                                   : 576 pixels
Display aspect ratio                     : 16:9
Frame rate mode                          : Constant
Frame rate                               : 25.000 FPS
Color space                              : YUV
Chroma subsampling                       : 4:2:0
Bit depth                                : 8 bits
Scan type                                : Progressive
Bits/(Pixel*Frame)                       : 0.052
Stream size                              : 621 MiB (85%)
Writing library                          : x264

Audio
ID                                       : 2
Format                                   : AAC
Format/Info                              : Advanced Audio Codec
Format profile                           : LC
Codec ID                                 : mp4a-40-2
Duration                                 : 1 h 53 min
Bit rate mode                            : Variable
Bit rate                                 : 128 kb/s
Channel(s)                               : 2 channels
Channel positions                        : Front: L R
Sampling rate                            : 44.1 kHz
Frame rate                               : 43.066 FPS (1024 SPF)
Compression mode                         : Lossy
Stream size                              : 103 MiB (14%)
Default                                  : Yes
Alternate group                          : 1
Category:Movies > Bollywood
Lang:Hindi
Total Size:728.61 MB
Info Hash:bc71702485b4fabe099db741a7bd1404ee3c70c5
Added By:hdfilmboss
Date Added:24-03-2018 03:31:16
Downloads:228

Ratings:Not Yet Rated (Log in to rate it)


Tracker:
udp://tracker.coppersurfer.tk:6969/announce


File List: 


Comments

<< Previous      Next >>
1 - 1

[Report] Posted: 24-03-2018 at 03:46:49
DownloadHD
Team DownloadHD


add some screen shots ....... :bad

1 - 1
<< Previous      Next >>


Top
Copyright 2018 DownloadHD -|- Page Generated In 0.303467 secs.
-|- RSS Feed -|- Feed Info
Mr. Kabaadi 2018 WebRip Hindi 720p x264 AAC ESub - mkvCinemas [Telly] | Watch FBI | The Big Bang Theory s12e07