Login
Username:
Password:
[Signup]
[Recover Account]


Browse Torrents

Poll


You must be logged in to view polls



Latest Torrents
Hunter.Killer.2018...
- [Size: 1.31 GB]

Hunter.Killer.2018...
- [Size: 1.31 GB]

A.Boy.A.Girl.A.Dre...
- [Size: 3.69 GB]

Christmas.Presence...
- [Size: 4.02 GB]

The.Case.That.Haun...
- [Size: 234.82 MB]


Torrent Details For "Secret Superstar 2017 1080p Netflix DL AVC DD 5.1 Audio ESUBS Team Jio Exclusive"

Secret Superstar 2017 1080p Netflix DL AVC DD 5.1 Audio ESUBS Team Jio Exclusive

Download this torrent | Magnet Download
Health:
Seeds: 0
Leechers: 0
Completed: 123 
Last Checked: 13-12-2018 18:54:23
External Torrent
Update Stats



Images Host

Poster


iMDB
Imdb Picture Title: Secret Superstar
Year: 2017
Votes: 638
Rating: 8.4/10
Language: Hindi
Country: India
All Genres: Drama, Family, Music
Plot Outline: The film revolves around the life of a child who aspires to be a singer.
Director: Advait Chandan
Writing By: Advait Chandan,
Produced By: Akash Chawla,Aamir Khan,Sujay Kutty,Girish Patel,B. Shrinivas Rao,Kiran Rao,
Music: Amit Trivedi
Cast:
Zaira Wasim as Insia
Meher Vij as Najma / Insia's Mother
Raj Arjun as Farookh Malik / Insia's Father
Tirth Sharma as
Kabir Shaikh as
Farrokh Jaffer as
Aamir Khan as Shakti Kumar
Manuj Sharma as Ranjeet
Mona Ambegaonkar as Sheena Sabhawala
Trailers:
Official 'Secret Superstar' Trailer


Watch-Free-HD     Download

Details
Name:Secret Superstar 2017 1080p Netflix DL AVC DD 5.1 Audio ESUBS Team Jio Exclusive
Description:





Quote:

Format                      : Matroska
Format version              : Version 4 / Version 2
File size                   : 5.33 GiB
Duration                    : 2 h 29 min
Overall bit rate            : 5 102 kb/s
Movie name                  : JioTorrents.net Exclusive
Encoded date                : UTC 2018-03-23 06:46:44
Writing application         : mkvmerge v20.0.0 ('I Am The Sun') 64-bit
Writing library             : libebml v1.3.5 + libmatroska v1.4.8

Video
ID                          : 1
Format                      : AVC
Format/Info                 : Advanced Video Codec
Format profile              : [email protected]
Format settings             : CABAC / 2 Ref Frames
Format settings, CABAC      : Yes
Format settings, ReFrames   : 2 frames
Format settings, GOP        : M=1, N=12
Codec ID                    : V_MPEG4/ISO/AVC
Duration                    : 2 h 29 min
Bit rate                    : 4 716 kb/s
Width                       : 1 920 pixels
Height                      : 1 080 pixels
Display aspect ratio        : 16:9
Frame rate mode             : Constant
Frame rate                  : 24.000 FPS
Color space                 : YUV
Chroma subsampling          : 4:2:0
Bit depth                   : 8 bits
Scan type                   : Progressive
Bits/(Pixel*Frame)          : 0.095
Stream size                 : 4.93 GiB (92%)
Default                     : Yes
Forced                      : No

Audio
ID                          : 2
Format                      : AC-3
Format/Info                 : Audio Coding 3
Codec ID                    : A_AC3
Duration                    : 2 h 29 min
Bit rate mode               : Constant
Bit rate                    : 384 kb/s
Channel(s)                  : 6 channels
Channel positions           : Front: L C R, Side: L R, LFE
Sampling rate               : 48.0 kHz
Frame rate                  : 31.250 FPS (1536 SPF)
Bit depth                   : 16 bits
Compression mode            : Lossy
Stream size                 : 411 MiB (8%)
Service kind                : Complete Main
Default                     : Yes
Forced                      : No

Text
ID                          : 3
Format                      : UTF-8
Codec ID                    : S_TEXT/UTF8
Codec ID/Info               : UTF-8 Plain Text
Duration                    : 2 h 26 min
Bit rate                    : 54 b/s
Count of elements           : 1975
Stream size                 : 58.1 KiB (0%)
Default                     : Yes
Forced                      : No

 
 
 
 
 
 
 
 
 
 
 
 
 
 
 
 
Category:Movies > WEB-HD
Lang:Hindi
Total Size:5.33 GB
Info Hash:fb79f3ef556f2e3bc51331c02b0be67de6b815c6
Added By:yamraaj
Date Added:23-03-2018 07:04:03
Downloads:517

Ratings:Not Yet Rated (Log in to rate it)


Tracker:
http://jiotorrents.net/announce.php?pk=c483ec1e284b61e3431c1bcc14a0e9a09069b48f

This Torrent also has backup trackers
URLSeedersLeechersCompleted
http://jiotorrents.net/announce.php?pk=c483ec1e284b61e3431c1bcc14a0e9a09069b48f000
http://5.79.83.193:2710/announce442
http://91.218.230.81:6969/announce000
http://bt.henbt.com:2710/announce000
http://mgtracker.org:2710/announce0033
http://mgtracker.org:6969/announce2127
http://p4p.arenabg.ch:1337/announce000
http://torrentsmd.com:8080/announce220
http://tracker.bittor.pw:1337/announce000
http://tracker.edoardocolombo.eu:6969/announce000
http://tracker1.wasabii.com.tw:6969/announce000
http://tracker2.itzmx.com:6961/announce008
http://tracker.opentrackr.org:1337/announce000
http://87.248.186.252:8080/announce100
http://p4p.arenabg.com:1337/announce1110
http://91.217.91.21:3218/announce0041
http://tracker.mg64.net:6881/announce030
http://tracker.tfile.me/announce030
http://explodie.org:6969/announce000
http://tracker.aletorrenty.pl:2710/announce000
http://173.254.204.71:1096/announce113
http://210.244.71.25:6969/announce000
http://59.36.96.77:6969/announce000
http://tracker.skyts.net:6969/announce210
http://tracker.internetwarriors.net:1337/announce000
http://tracker.yoshi210.com:6969/announce000
http://www.wareztorrent.com/announce000
http://37.19.5.155:6881/announce000
http://80.246.243.18:6969/announce000
http://37.19.5.139:6969/announce000
http://tracker.dler.org:6969/announce000
http://bt2.careland.com.cn:6969/announce000
http://46.4.109.148:6969/announce000
http://tracker.calculate.ru:6969/announce000
http://tracker.tvunderground.org.ru:3218/announce0041
http://tracker.grepler.com:6969/announce000
http://open.acgtracker.com:1096/announce100
http://74.82.52.209:6969/announce000


File List: 


Comments

No comments still posted

Top
Copyright 2018 DownloadHD -|- Page Generated In 2.814232 secs.
-|- RSS Feed -|- Feed Info
Yugoslavia | April 2010 | Dragon Ball Super Episode 53 English Dub