Login
Username:
Password:
[Signup]
[Recover Account]


Browse Torrents

Poll


You must be logged in to view polls



Latest Torrents
Blood.UK.S01E01E02...
- [Size: 387.18 MB]

Hero No Zero 3 (Ma...
- [Size: 638.09 MB]

Chalbaaz (2018) Sa...
- [Size: 699.80 MB]

Bodhon [2017] Beng...
- [Size: 583.86 MB]

Munni Metric Pass ...
- [Size: 591.77 MB]


Torrent Details For "Mann (1999) Movie 1080p x264 6-Channel Audio(Cinematic Film Looks &Colour Corrected)-Encode..."

Mann (1999) Movie 1080p x264 6-Channel Audio(Cinematic Film Looks &Colour Corrected)-Encode...

Download this torrent | Magnet Download
Health:
Seeds: 0
Leechers: 2
Completed: 14 
Last Checked: 01-09-2018 11:34:41
External Torrent
Update Stats



Images Host

Poster


iMDB
Imdb Picture Title: Mann
Year: 1999
Runtime: 160 minutes
Votes: 3882
Rating: 6.2/10
Language: Hindi
Country: India
All Genres: Drama, Romance
Plot Outline: A young woman falls in love with a handsome playboy, while aboard a Singapore to India cruise. They make plans to meet again, but fate may have other plans...
Tagline: Listen to your heart
Director: Indra Kumar
Writing By: Mildred Cram,Aatish Kapadia,Aatish Kapadia,Naushir Khatau,Leo McCarey,
Produced By: Indra Kumar,Ashok Thakeria,
Music: Darshan Rathod Sanjeev Rathod Naresh Sharma
Cast:
Aamir Khan as Karan Dev Singh
Manisha Koirala as Priya Verma
Sharmila Tagore as Dev's grandmother
Dipti Bhatnagar as Anita Singhania
Dalip Tahil as Pratap Rai Singhania
Anil Kapoor as Raj
Rani Mukerji as Special Appearance (song 'Kali Nagin Ke')
Neeraj Vora as Nattu
Satyendra Kapoor as Raj's uncle
Ananth Narayan Mahadevan as Creditor


Watch-Free-HD     Download

Details
Name:Mann (1999) Movie 1080p x264 6-Channel Audio(Cinematic Film Looks &Colour Corrected)-Encode...
Description:
Mann (1999) Movie 1080p x264 6-Channel Audio




Complete name                            : Mann (1999) Movie 1080p x264 6-Channel Audio(Flime Looks &Colour Corrected)-Encoded By Suman142.mp4
Format                                   : MPEG-4
Format profile                           : Base Media / Version 2
Codec ID                                 : mp42 (mp42/mp41)
File size                                : 3.86 GiB
Duration                                 : 2 h 52 min
Overall bit rate mode                    : Variable
Overall bit rate                         : 3 192 kb/s
Encoded date                             : UTC 2018-03-22 18:25:27
Tagged date                              : UTC 2018-03-22 18:29:29
TIM                                      : 00:00:00:00
TSC                                      : 25
TSZ                                      : 1

Video
ID                                       : 1
Format                                   : AVC
Format/Info                              : Advanced Video Codec
Format profile                           : [email protected]
Format settings                          : CABAC / 4 Ref Frames
Format settings, CABAC                   : Yes
Format settings, RefFrames               : 4 frames
Codec ID                                 : avc1
Codec ID/Info                            : Advanced Video Coding
Duration                                 : 2 h 52 min
Bit rate                                 : 2 999 kb/s
Width                                    : 1 920 pixels
Height                                   : 1 080 pixels
Display aspect ratio                     : 16:9
Frame rate mode                          : Constant
Frame rate                               : 25.000 FPS
Standard                                 : PAL
Color space                              : YUV
Chroma subsampling                       : 4:2:0
Bit depth                                : 8 bits
Scan type                                : Progressive
Bits/(Pixel*Frame)                       : 0.058
Stream size                              : 3.62 GiB (94%)
Language                                 : English
Encoded date                             : UTC 2018-03-22 18:25:27
Tagged date                              : UTC 2018-03-22 18:25:27
Color range                              : Limited
Color primaries                          : BT.709
Transfer characteristics                 : BT.709
Matrix coefficients                      : BT.709

Audio
ID                                       : 2
Format                                   : AAC
Format/Info                              : Advanced Audio Codec
Format profile                           : LC
Codec ID                                 : mp4a-40-2
Duration                                 : 2 h 52 min
Source duration                          : 2 h 52 min
Bit rate mode                            : Variable
Bit rate                                 : 192 kb/s
Maximum bit rate                         : 299 kb/s
Channel(s)                               : 6 channels
Channel positions                        : Front: L C R, Side: L R, LFE
Sampling rate                            : 48.0 kHz
Frame rate                               : 46.875 FPS (1024 SPF)
Compression mode                         : Lossy
Stream size                              : 234 MiB (6%)
Source stream size                       : 234 MiB (6%)
Language                                 : English
Encoded date                             : UTC 2018-03-22 18:25:27
Tagged date                              : UTC 2018-03-22 18:25:27








Category:Movies > Bollywood
Lang:Hindi
Total Size:3.86 GB
Info Hash:68ef8868f14cfda36c4eea10d24e07a08101165a
Added By:suman142
Date Added:22-03-2018 19:10:05
Downloads:513

Ratings:Not Yet Rated (Log in to rate it)


Tracker:
http://share.camoe.cn:8080/announce

This Torrent also has backup trackers
URLSeedersLeechersCompleted
http://share.camoe.cn:8080/announce000
http://t.nyaatracker.com:80/announce000
http://asnet.pw:2710/announce000
http://tracker.tfile.co:80/announce100
http://pt.lax.mx:80/announce000
http://tracker.bt-hash.com:443/announce000
http://grifon.info:80/announce000
http://retracker.spark-rostov.ru:80/announce000
http://tr.kxmp.cf:80/announce000
http://tracker.city9x.com:2710/announce005
http://tracker.tfile.me:80/announce100
http://retracker.telecom.by:80/announce000
http://tracker.electro-torrent.pl:80/announce010
http://open.kickasstracker.com:443/announce020
http://retracker.mgts.by:80/announce004
http://retracker.bashtel.ru:80/announce000
http://tracker.devil-torrents.pl:80/announce000
http://torrentsmd.eu:8080/announce020
http://ns349743.ip-91-121-106.eu:80/announce000
http://torrentsmd.me:8080/announce020
http://agusiq-torrents.pl:6969/announce026
http://fxtt.ru:80/announce000


File List: 


Comments

<< Previous      Next >>
1 - 2

[Report] Posted: 26-03-2018 at 10:13:53
LatestHDMovies



Bekaar Print , AB Dekho Mein upload Karta hun Print ,

[Report] Posted: 26-03-2018 at 11:19:16
wiki



0+0

1 - 2
<< Previous      Next >>


Top
Copyright 2018 DownloadHD -|- Page Generated In 2.890382 secs.
-|- RSS Feed -|- Feed Info
[…] | Ask an Experienced Encoder Here | Game of Thrones: Conquestâ„¢