Login
Username:
Password:
[Signup]
[Recover Account]


Browse Torrents

Poll


You must be logged in to view polls



Latest Torrents
Seth.Meyers.2018.1...
- [Size: 586.13 MB]

Seth.Meyers.2018.1...
- [Size: 801.04 MB]

18+.What.Keeps.You...
- [Size: 1.10 GB]

Dirty Boss (2016) ...
- [Size: 1.33 GB]

Weight.2018.HDRip....
- [Size: 1.35 GB]


Torrent Details For "Jaan Tere Naam(1992) Movie 720p AVC ACC Audio-HDprintMovies"

Jaan Tere Naam(1992) Movie 720p AVC ACC Audio-HDprintMovies

Download this torrent | Magnet Download
Health:
Seeds: 0
Leechers: 70
Completed:
Last Checked: 21-07-2018 23:41:51
External Torrent
Update Stats



Images Host

Poster


iMDB
Imdb Picture Title: Jaan Tere Naam
Year: 1992
Runtime: 150 minutes
Votes: 106
Rating: 6.4/10
Language: Hindi
Country: India
All Genres: Drama, Romance
Plot Outline: Lovely Pinky Malhotra is a heart-breaker in the college where she studies, and has a number of young men who would lay down their lives for her. Amongst them are Sunil and Vicky. She is ...
Director: Deepak Balraj Vij

Produced By: Jimmy Nirula,
Music: Shravan Rathod Nadeem Saifi
Cast:
Vijay Arora as Ajay Malhotra
Ali Asgar as Chi Chi
Ravi Baswani as Hotel employee
Joan David as Rita
Sulabha Deshpande as Sunil's mom
Balbinder Dhami as
Farheen as Pinky Malhotra
Vinit Kumar as Florist in Goa
Anju Mahendru as Mrs. Ajay Malhotra
Navneet Nishan as Archana


Watch-Free-HD     Download

Details
Name:Jaan Tere Naam(1992) Movie 720p AVC ACC Audio-HDprintMovies
Description:


Complete name                            : Jaan Tere Naam(1992) Full Movie 720p HD-(Suman142).mp4
Format                                   : MPEG-4
Format profile                           : Base Media
Codec ID                                 : isom (mp41)
File size                                : 3.78 GiB
Duration                                 : 2 h 10 min
Overall bit rate                         : 4 134 kb/s
ContentType                              : 9
Encoded date                             : UTC 2018-03-18 18:21:53
Tagged date                              : UTC 2018-03-18 18:21:53

Video
ID                                       : 2
Format                                   : AVC
Format/Info                              : Advanced Video Codec
Format profile                           : [email protected]
Format settings                          : 1 Ref Frames
Format settings, CABAC                   : No
Format settings, RefFrames               : 1 frame
Format settings, GOP                     : M=1, N=25
Muxing mode                              : Container [email protected]
Codec ID                                 : avc1
Codec ID/Info                            : Advanced Video Coding
Duration                                 : 2 h 10 min
Bit rate                                 : 4 019 kb/s
Width                                    : 1 280 pixels
Height                                   : 720 pixels
Display aspect ratio                     : 16:9
Frame rate mode                          : Constant
Frame rate                               : 25.000 FPS
Color space                              : YUV
Chroma subsampling                       : 4:2:0
Bit depth                                : 8 bits
Scan type                                : Progressive
Bits/(Pixel*Frame)                       : 0.174
Stream size                              : 3.67 GiB (97%)
Language                                 : English

Audio
ID                                       : 1
Format                                   : AAC
Format/Info                              : Advanced Audio Codec
Format profile                           : LC
Codec ID                                 : mp4a-40-2
Duration                                 : 2 h 10 min
Bit rate mode                            : Constant
Bit rate                                 : 111 kb/s
Channel(s)                               : 2 channels
Channel positions                        : Front: L R
Sampling rate                            : 48.0 kHz
Frame rate                               : 46.875 FPS (1024 SPF)
Compression mode                         : Lossy
Stream size                              : 104 MiB (3%)
Language                                 : English











Category:Movies > Bollywood
Lang:Hindi
Total Size:3.78 GB
Info Hash:bdbada0e27f7c235f7d46ca63af28629059b09dc
Added By:suman142
Date Added:18-03-2018 18:59:15
Downloads:577

Ratings:Not Yet Rated (Log in to rate it)


Tracker:
http://share.camoe.cn:8080/announce

This Torrent also has backup trackers
URLSeedersLeechersCompleted
http://share.camoe.cn:8080/announce000
http://t.nyaatracker.com:80/announce020
http://asnet.pw:2710/announce000
http://tracker.tfile.co:80/announce100
http://pt.lax.mx:80/announce000
http://tracker.bt-hash.com:443/announce000
http://grifon.info:80/announce000
http://retracker.spark-rostov.ru:80/announce000
http://tr.kxmp.cf:80/announce000
http://tracker.city9x.com:2710/announce040
http://tracker.tfile.me:80/announce100
http://retracker.telecom.by:80/announce000
http://tracker.electro-torrent.pl:80/announce030
http://open.kickasstracker.com:443/announce030
http://retracker.mgts.by:80/announce030
http://retracker.bashtel.ru:80/announce000
http://tracker.devil-torrents.pl:80/announce000
http://torrentsmd.eu:8080/announce020
http://ns349743.ip-91-121-106.eu:80/announce000
http://torrentsmd.me:8080/announce020
http://agusiq-torrents.pl:6969/announce050
http://fxtt.ru:80/announce010


File List: 


Comments

<< Previous      Next >>
1 - 1

[Report] Posted: 14-04-2018 at 12:59:42
wiki



CHACHA Seed KARO PLEASE

1 - 1
<< Previous      Next >>


Top
Copyright 2018 DownloadHD -|- Page Generated In 2.477615 secs.
-|- RSS Feed -|- Feed Info
Yellowstone | Infinite Flight Simulator download | Paw Patrol S05E4041 1080p NICK WEBRip AAC2 0 x264-LAZY[rarbg]