Login
Username:
Password:
[Signup]
[Recover Account]


Browse Torrents

Poll


You must be logged in to view polls



Latest Torrents
Master.of.Arms.S01...
- [Size: 983.73 MB]

Master.of.Arms.S01...
- [Size: 326.47 MB]

Z.Nation.S05E07.WE...
- [Size: 601.09 MB]

Z.Nation.S05E07.72...
- [Size: 820.80 MB]

Dead Awake 2010 x2...
- [Size: 593.33 MB]


Torrent Details For "Badrinath Ki Dulhania 2017 Hindi 720p BluRay x264 AAC 5.1 Esub - MRG"

Badrinath Ki Dulhania 2017 Hindi 720p BluRay x264 AAC 5.1 Esub - MRG

Download this torrent | Magnet Download
Health:
Seeds: 0
Leechers: 7
Completed: 34 
Last Checked: 02-11-2018 18:00:46
External Torrent
Update Stats



Images Host

Poster


Watch-Free-HD     Download

Details
Name:Badrinath Ki Dulhania 2017 Hindi 720p BluRay x264 AAC 5.1 Esub - MRG
Description:
Badrinath Ki Dulhania  2017 Hindi 720p BluRay x264 AAC 5.1 Esub - MRG

SOURCE- BD50 @ DownloadHD. MANY THANKS :)

Format                                   : Matroska
Format version                           : Version 4 / Version 2
File size                                : 1.21 GiB
Duration                                 : 2 h 20 min
Overall bit rate                         : 1 236 kb/s
Movie name                               : Badrinath Ki Dulhania  2017- TEAM MRG


Video
ID                                       : 1
Format                                   : AVC
Format/Info                              : Advanced Video Codec
Format profile                           : [email protected]
Format settings, CABAC                   : Yes
Format settings, ReFrames                : 8 frames
Codec ID                                 : V_MPEG4/ISO/AVC
Duration                                 : 2 h 19 min
Bit rate                                 : 1 050 kb/s
Width                                    : 1 280 pixels
Height                                   : 544 pixels
Display aspect ratio                     : 2.35:1
Frame rate mode                          : Constant
Frame rate                               : 24.000 FPS


Audio
ID                                       : 2
Format                                   : AAC
Format/Info                              : Advanced Audio Codec
Format profile                           : LC
Codec ID                                 : A_AAC
Duration                                 : 2 h 20 min
Bit rate                                 : 192 kb/s
Channel(s)                               : 6 channels
Channel positions                        : Front: L C R, Side: L R, LFE
Sampling rate                            : 48.0 kHz
Frame rate                               : 46.875 FPS (1024 spf)
Compression mode                         : Lossy
Delay relative to video                  : 9 ms
Stream size                              : 192 MiB (15%)
Language                                 : Hindi
Default                                  : Yes
Forced                                   : No

Text
ID                                       : 3
Format                                   : UTF-8
Codec ID                                 : S_TEXT/UTF8
Codec ID/Info                            : UTF-8 Plain Text
Duration                                 : 2 h 13 min
Bit rate                                 : 66 b/s
Count of elements                        : 2040
Stream size                              : 65.1 KiB (0%)
Language                                 : English
Default                                  : Yes
Forced                                   : No

Menu
00:00:00.000                             : en:Chapter 01
00:04:22.458                             : en:Chapter 02
00:09:19.750                             : en:Chapter 03
00:11:36.791                             : en:Chapter 04
00:12:07.041                             : en:Chapter 05
00:16:09.250                             : en:Chapter 06
00:20:08.875                             : en:Chapter 07
00:26:39.708                             : en:Chapter 08
00:31:21.250                             : en:Chapter 09
00:34:17.041                             : en:Chapter 10
00:39:22.583                             : en:Chapter 11
00:45:09.000                             : en:Chapter 12
00:50:29.000                             : en:Chapter 13
00:53:20.125                             : en:Chapter 14
00:54:42.000                             : en:Chapter 15
01:01:19.333                             : en:Chapter 16
01:04:20.750                             : en:Chapter 17
01:09:22.083                             : en:Chapter 18
01:15:30.166                             : en:Chapter 19
01:15:46.666                             : en:Chapter 20
01:20:05.041                             : en:Chapter 21
01:27:54.541                             : en:Chapter 22
01:42:57.041                             : en:Chapter 23
01:49:40.625                             : en:Chapter 24
02:02:25.333                             : en:Chapter 25
02:13:10.833                             : en:Chapter 26



             
Category:Movies > Bollywood
Lang:Hindi
Total Size:1.21 GB
Info Hash:cd47ab5245d7481b74310d4aee33de7a760bb6af
Added By:MAAXHD
Date Added:05-06-2017 01:27:08
Downloads:1,032

Ratings:Not Yet Rated (Log in to rate it)


Tracker:
udp://tracker.coppersurfer.tk:6969/announce


File List: 


Comments

No comments still posted

Top
Copyright 2018 DownloadHD -|- Page Generated In 0.480438 secs.
-|- RSS Feed -|- Feed Info
Knowledge | Tuyau tube air eau PU transparent / bleu 4x2,5 mm Braun Oral Oxyjet hydropulseu) | Schedule