Login
Username:
Password:
[Signup]
[Recover Account]


Browse Torrents

Poll


You must be logged in to view polls



Latest Torrents
Tosh.0.S10E20.WEB....
- [Size: 201.90 MB]

Tigers (2018) Hind...
- [Size: 698.80 MB]

Real.Country.S01E0...
- [Size: 579.76 MB]

Padmaavat.2018 72...
- [Size: 2.99 GB]

TMZ.on.TV.2018.11....
- [Size: 160.78 MB]


Torrent Details For "Rock On 2 (2016) [Hindi] Untouched Web-DL AVC AAC Msub - Download"

Rock On 2 (2016) [Hindi] Untouched Web-DL AVC AAC Msub - Download

Download this torrent | Magnet Download
Health:
Seeds: 0
Leechers: 17
Completed:
Last Checked: 15-12-2017 14:42:16
External Torrent
Update Stats



Images Host

Poster


iMDB
Imdb Picture Title: Rock On 2
Year: 2016
Runtime: 143 minutes
Votes: 1271
Rating: 5.0/10
Language: Hindi
Country: India
All Genres: Drama, Music
Plot Outline: The band, Magik reunites with some new members.
Tagline: Every generation finds its voice.
Director: Shujaat Saudagar
Writing By: Abhishek Kapoor,Pubali Chaudhuri,Pubali Chaudhuri,Farhan Akhtar,
Produced By: Farhan Akhtar,Vikesh Bhutani,Ashit Ghelani,Arif Mir,Ritesh Sidhwani,
Music: Shankar Mahadevan Loy Mendonsa Ehsaan Noorani
Plot:

The band, Magik reunites with some new members.


Cast:
Farhan Akhtar as Aditya Shroff
Shraddha Kapoor as Jiah Sharma
Arjun Rampal as Joseph Mascarenhas
Purab Kohli as Kedar Zaveri / KD
Prachi Desai as Sakshi Shroff
Shashank Arora as Uday
Shahana Goswami as Debbie Mascarenhas
Vishal Dadlani as
Manka Kaur as Pavitra
Luke Kenny as Rob Nancy


Watch-Free-HD     Download

Details
Name:Rock On 2 (2016) [Hindi] Untouched Web-DL AVC AAC Msub - Download
Description:
Rock On 2 (2016) [Hindi] Untouched Web-DL AVC AAC Msub - DownloadHD

Format                      : Matroska
File size                   : 1.26 GiB
Duration                    : 2 h 22 min
Overall bit rate            : 1 267 kb/s

Video
ID                          : 1
Format                      : AVC
Format/Info                 : Advanced Video Codec
Format profile              : [email protected]
Format settings, CABAC      : Yes
Format settings, ReFrames   : 4 frames
Format settings, GOP        : M=4, N=30
Codec ID                    : V_MPEG4/ISO/AVC
Duration                    : 2 h 22 min
Bit rate                    : 1 228 kb/s
Width                       : 640 pixels
Height                      : 360 pixels
Display aspect ratio        : 16:9
Frame rate mode             : Constant
Frame rate                  : 24.000 FPS
Stream size                 : 1.21 GiB (96%)

Audio
ID                          : 2
Format                      : AAC
Format/Info                 : Advanced Audio Codec
Format profile              : LC
Codec ID                    : A_AAC
Duration                    : 2 h 22 min
Bit rate                    : 48.0 kb/s
Channel(s)                  : 2 channels
Channel positions           : Front: L R
Sampling rate               : 48.0 kHz
Frame rate                  : 46.875 FPS (1024 spf)
Stream size                 : 47.4 MiB (4%)




Category:Movies > Bollywood
Lang:Hindi
Total Size:1.26 GB
Info Hash:e505a5817688a5a33efd6a2371c613aa3b841a1c
Added By:Unknown
Date Added:02-06-2017 22:17:01
Downloads:236

Ratings:Not Yet Rated (Log in to rate it)


Tracker:
udp://tracker.coppersurfer.tk:6969/announce


File List: 


Comments

No comments still posted

Top
Copyright 2018 DownloadHD -|- Page Generated In 3.331019 secs.
-|- RSS Feed -|- Feed Info
Business | Koi to Uso 125 | antiker Engel Schutzengel aus Porzellan Bisuitporzellan um 1900