Login
Username:
Password:
[Signup]
[Recover Account]


Browse Torrents

Poll


You must be logged in to view polls



Latest Torrents
Villain (2018) Ben...
- [Size: 558.96 MB]

Villain (2018) Ben...
- [Size: 1.49 GB]

Mirzapur (2018) Se...
- [Size: 3.39 GB]

The.Daily.Show.201...
- [Size: 311.67 MB]

How.to.Get.Away.wi...
- [Size: 1.17 GB]


Torrent Details For "Baar Baar Dekho (2016) [Hindi] Untouched Web-DL AVC AAC Msub - DownloadHD"

Baar Baar Dekho (2016) [Hindi] Untouched Web-DL AVC AAC Msub - DownloadHD

Download this torrent | Magnet Download
Health:
Seeds: 0
Leechers: 2
Completed:
Last Checked: 29-08-2017 20:03:55
External Torrent
Update Stats



Images Host

Poster


iMDB
Imdb Picture Title: Baar Baar Dekho
Year: 2016
Runtime: 141 minutes
Votes: 3987
Rating: 5.2/10
Language: Hindi
Country: India
All Genres: Comedy, Drama, Romance
Plot Outline: The highs and lows of a romantic relationship are examined through flashbacks and flash-forwards.
Director: Nitya Mehra
Writing By: Sri Rao,Nitya Mehra,Sri Rao,Anuvab Pal,Anvita Dutt,
Produced By: Farhan Akhtar,Vikesh Bhutani,Patel Cyrus,Jim Edgar,Hiroo Johar,Karan Johar,Firuzi Khan,Cyrus Patel,Sri Rao,Ritesh Sidhwani,Nita Vaidya,Rupali Suresh Vaidya,
Plot:

'Baar Baar Dekho' is a love-story, which unfolds through flash-backs and flash-forwards. Recently actor Sidharth Malhotra has revealed that, the movie has a unique and has a very unusual storyline. The film is neither science fiction nor does it revolve around time travel. The styling is currently underway. Film has started in 2015 September for which Katrina and Sidharth had shot in London.

The highs and lows of a romantic relationship are examined through flashbacks and flash-forwards.


Cast:
Sidharth Malhotra as Jai
Katrina Kaif as Diya
Sayani Gupta as Chitra
Kirti Adarkar as Suman
Sagar Arya as Nikhil Khanna
Taaha Shah Badusha as Tarun
Faisal Batliwala as Jai 14 years
Amit Bhagwanani as Journalist
Andrey Boldyrkov as Tour group
Norman Bowman as Rick (Tarun's Boyfriend)


Watch-Free-HD     Download

Details
Name:Baar Baar Dekho (2016) [Hindi] Untouched Web-DL AVC AAC Msub - DownloadHD
Description:
Baar Baar Dekho (2016) [Hindi] Untouched Web-DL AVC AAC Msub - DownloadHD

Format                      : Matroska
File size                   : 1.27 GiB
Duration                    : 2 h 20 min
Overall bit rate            : 1 290 kb/s

Video
ID                          : 1
Format                      : AVC
Format/Info                 : Advanced Video Codec
Format profile              : [email protected]
Format settings, CABAC      : Yes
Format settings, ReFrames   : 4 frames
Format settings, GOP        : M=4, N=30
Codec ID                    : V_MPEG4/ISO/AVC
Duration                    : 2 h 20 min
Bit rate                    : 1 228 kb/s
Width                       : 640 pixels
Height                      : 360 pixels
Display aspect ratio        : 16:9
Frame rate mode             : Constant
Frame rate                  : 24.000 FPS
Stream size                 : 1.22 GiB (96%)

Audio
ID                          : 2
Format                      : AAC
Format/Info                 : Advanced Audio Codec
Format profile              : LC
Codec ID                    : A_AAC
Duration                    : 2 h 20 min
Bit rate                    : 48.0 kb/s
Channel(s)                  : 2 channels
Channel positions           : Front: L R
Sampling rate               : 48.0 kHz
Frame rate                  : 46.875 FPS (1024 spf)
Stream size                 : 46.9 MiB (4%)















Category:Movies > Bollywood
Lang:Hindi
Total Size:1.27 GB
Info Hash:978fd53a2d7fb5aa9bf268ff49b3904ae68d87ec
Added By:Unknown
Date Added:02-06-2017 21:46:42
Downloads:290

Ratings:Not Yet Rated (Log in to rate it)


Tracker:
udp://tracker.coppersurfer.tk:6969/announce


File List: 


Comments

No comments still posted

Top
Copyright 2018 DownloadHD -|- Page Generated In 1.899053 secs.
-|- RSS Feed -|- Feed Info