Login
Username:
Password:
[Signup]
[Recover Account]


Browse Torrents

Poll


You must be logged in to view polls



Latest Torrents
Villain (2018) Ben...
- [Size: 558.96 MB]

Villain (2018) Ben...
- [Size: 1.49 GB]

Mirzapur (2018) Se...
- [Size: 3.39 GB]

The.Daily.Show.201...
- [Size: 311.67 MB]

How.to.Get.Away.wi...
- [Size: 1.17 GB]


Torrent Details For "John Wick Duology 2014-2017 1080p BRrip x264 Dual audio [Hin + Eng 5.1] Esub Skyler"

John Wick Duology 2014-2017 1080p BRrip x264 Dual audio [Hin + Eng 5.1] Esub Skyler

Download this torrent | Magnet Download
Health:
Seeds: 0
Leechers: 4
Completed: 52 
Last Checked: 15-11-2018 14:55:38
External Torrent
Update Stats



Images Host

Poster


iMDB
Imdb Picture Title: John Wick
Year: 2014
Runtime: 101 minutes
Votes: 324549
Rating: 7.3/10
Language: English, Russian, Hungarian
Country: USA, China
All Genres: Action, Crime, Thriller
Plot Outline: An ex-hitman comes out of retirement to track down the gangsters that took everything from him.
Tagline: Don't Set Him Off!
Director: Chad Stahelski
David Leitch
Writing By: Derek Kolstad,
Produced By: Darren Blumenthal,Sam X. Eyde,Tara Finegan,Kevin Scott Frakes,Basil Iwanyk,Peter Lawson,Erica Lee,David Leitch,Noel Lohr,Eva Longoria,Doug Monticciolo,Andrew C. Robinson,Raj Brinder Singh,Jared Underwood,Mike Upton,Joseph Vincenti,Jamie Wing,Mike Witherill,Stephen Hamel,Keanu Reeves,Chad Stahelski,
Music: Tyler Bates Joel J. Richard
Plot:

A man called John Wick is grieving the loss of his beloved wife; Helen that has recently died of an illness. He goes to her funeral and receives the condolences from his old friend Marcus. At home, John receives a special delivery which is the last gift from his wife, an adorable puppy that becomes his pride and joy. One day, John goes to the gas station in his '69 Mustang and the Russian; Iosef Tarasov asks the price he wants for his car. John advises that the car is not for sale and returns home. During the night, Iosef, who is the son of the powerful Russian mobster Viggo, breaks into John's house with other gangsters and beat John, kill his precious dog, and steal his car. Iosef learns that John Wick was the unbeatable hit man who used to work for his father. Known as the guy you hire to kill the Boogy Man, Iosef soon realizes that he messed with the wrong person. Now, John Wick has lost everything he loved and wants the head of Iosef. Viggo decides to protect his son at any cost and will pay the price.

- Written by Claudio Carvalho, Rio de Janeiro, Brazil

The wife of glorified retired hit-man John Wick, leaves him a gift in her will after her death. A dog with the same name as her favorite flower: Daisy. Mr. Wick's home is then broken into by the son and goons of his former Russian mobster boss, who render John Wick senseless, steal his car, and kill Daisy his beloved dog. John Wick then proceeds to return to his former job, only his target this time is the Russian mob. 'The entire Russian Mob'.

- Written by Unknownian

An ex-hitman comes out of retirement to track down the gangsters that took everything from him.

- Written by Anonymous
Cast:
Keanu Reeves as John Wick
Michael Nyqvist as Viggo Tarasov
Alfie Allen as Iosef Tarasov
Willem Dafoe as Marcus
Dean Winters as Avi
Adrianne Palicki as Ms. Perkins
Omer Barnea as Gregori
Toby Leonard Moore as Victor
Daniel Bernhardt as Kirill
Bridget Moynahan as Helen
Trailers:
Official Trailer
Trailer #2


Watch-Free-HD     Download

Details
Name:John Wick Duology 2014-2017 1080p BRrip x264 Dual audio [Hin + Eng 5.1] Esub Skyler
Description:





[size=23]John Wick Duology 2014-2017 1080p BRrip x264 Dual audio [Hin + Eng 5.1] Skyler[/size]

[size=23]john wick 1 & 2 Hindi Audio Remastered 640 kb/s By Me [Skyler][/size]

[size=23]
Where Ever You Share Movies & Audio Give Proper Credit Skyler Shd
[/size]




Video
ID                                       : 1
ID                                       : 1
Format                                   : AVC
Format/Info                              : Advanced Video Codec
Format profile                           : [email protected]
Format settings                          : CABAC / 5 Ref Frames
Format settings, CABAC                   : Yes
Format settings, RefFrames               : 5 frames
Codec ID                                 : V_MPEG4/ISO/AVC
Duration                                 : 1 h 41 min
Bit rate                                 : 3 056 kb/s
Width                                    : 1 920 pixels
Height                                   : 800 pixels
Display aspect ratio                     : 2.40:1
Frame rate mode                          : Constant
Frame rate                               : 23.976 (24000/1001) FPS
Color space                              : YUV
Chroma subsampling                       : 4:2:0
Bit depth                                : 8 bits
Scan type                                : Progressive
Bits/(Pixel*Frame)                       : 0.083
Stream size                              : 2.16 GiB (75%)
Title                                    : John Wick 2014 1080p
Writing library                          : x264 core 152 r2851 ba24899
Language                                 : English
Default                                  : Yes
Forced                                   : No
Color range                              : Limited
Color primaries                          : Generic film
Transfer characteristics                 : BT.709
Matrix coefficients                      : BT.709                                      

Audio #1
ID                                       : 2
Format                                   : AC-3
Format/Info                              : Audio Coding 3
Codec ID                                 : A_AC3
Duration                                 : 1 h 41 min
Bit rate mode                            : Constant
Bit rate                                 : 640 kb/s
Channel(s)                               : 6 channels
Channel positions                        : Front: L C R, Side: L R, LFE
Sampling rate                            : 48.0 kHz
Frame rate                               : 31.250 FPS (1536 SPF)
Bit depth                                : 16 bits
Compression mode                         : Lossy
Stream size                              : 463 MiB (16%)
Title                                    : 5.1 RM 640 Kb/s Skyler
Language                                 : Hindi
Service kind                             : Complete Main
Default                                  : No
Forced                                   : No

Audio #2
ID
Format                                   : AC-3
Format/Info                              : Audio Coding 3
Codec ID                                 : A_AC3
Duration                                 : 1 h 41 min
Bit rate mode                            : Constant
Bit rate                                 : 384 kb/s
Channel(s)                               : 6 channels
Channel positions                        : Front: L C R, Side: L R, LFE
Sampling rate                            : 48.0 kHz
Frame rate                               : 31.250 FPS (1536 SPF)
Bit depth                                : 16 bits
Compression mode                         : Lossy
Stream size                              : 278 MiB (9%)
Title                                    : 5.1 384 kb/s Skyler
Language                                 : English
Service kind                             : Complete Main
Default                                  : Yes
Forced                                   : No












Video
ID                                       : 1
rmat/Info                              : Advanced Video Codec
Format profile                           : [email protected]
Format settings                          : CABAC / 5 Ref Frames
Format settings, CABAC                   : Yes
Format settings, RefFrames               : 5 frames
Codec ID                                 : V_MPEG4/ISO/AVC
Duration                                 : 2 h 2 min
Bit rate                                 : 3 055 kb/s
Width                                    : 1 920 pixels
Height                                   : 800 pixels
Display aspect ratio                     : 2.40:1
Frame rate mode                          : Constant
Frame rate                               : 23.976 (24000/1001) FPS
Color space                              : YUV
Chroma subsampling                       : 4:2:0
Bit depth                                : 8 bits
Scan type                                : Progressive
Bits/(Pixel*Frame)                       : 0.083
Stream size                              : 2.61 GiB (74%)
Title                                    : John Wick Chapter 2 2017
Writing library                          : x264 core 152 r2851 ba24899
Language                                 : English
Default                                  : Yes
Forced                                   : No
Color range                              : Limited
Color primaries                          : Generic film
Transfer characteristics                 : BT.709
Matrix coefficients                      : BT.709
                                     
Audio #1
ID                                       : 2
Format                                   : AC-3
Format/Info                              : Audio Coding 3
Codec ID                                 : A_AC3
Duration                                 : 2 h 2 min
Bit rate mode                            : Constant
Bit rate                                 : 640 kb/s
Channel(s)                               : 6 channels
Channel positions                        : Front: L C R, Side: L R, LFE
Sampling rate                            : 48.0 kHz
Frame rate                               : 31.250 FPS (1536 SPF)
Bit depth                                : 16 bits
Compression mode                         : Lossy
Stream size                              : 560 MiB (15%)
Title                                    : 5.1 RM 640kb/s Skyler
Language                                 : Hindi
Service kind                             : Complete Main
Default                                  : Yes
Forced                                   : No

Audio #2
ID                                       : 3
Format                                   : AC-3
Format/Info                              : Audio Coding 3
Codec ID                                 : A_AC3
Duration                                 : 2 h 2 min
Bit rate mode                            : Constant
Bit rate                                 : 448 kb/s
Channel(s)                               : 6 channels
Channel positions                        : Front: L C R, Side: L R, LFE
Sampling rate                            : 48.0 kHz
Frame rate                               : 31.250 FPS (1536 SPF)
Bit depth                                : 16 bits
Compression mode                         : Lossy
Stream size                              : 392 MiB (11%)
Title                                    : 5.1 448 Kb/s Skyler
Language                                 : English
Service kind                             : Complete Main
Default                                  : No
Forced                                   : No













Category:Movies > Hollywood Dub
Lang:Hindi
Total Size:6.50 GB
Info Hash:153693dc8da682c97e0befec23791fa9330663d9
Added By:Skyler
Date Added:12-03-2018 13:08:00
Downloads:241

Ratings:Not Yet Rated (Log in to rate it)


Tracker:
udp://inferno.demonoid.pw:3391/announce


File List: 


Comments

No comments still posted

Top
Copyright 2018 DownloadHD -|- Page Generated In 3.089207 secs.
-|- RSS Feed -|- Feed Info