Login
Username:
Password:
[Signup]
[Recover Account]


Browse Torrents

Poll


You must be logged in to view polls



Latest Torrents
Nightshift.2018.HD...
- [Size: 706.57 MB]

Jimmy.Fallon.2018....
- [Size: 579.69 MB]

Jimmy.Fallon.2018....
- [Size: 582.40 MB]

The.Voice.S15E25.X...
- [Size: 1.51 GB]

The.Voice.S15E25.W...
- [Size: 1.17 GB]


Torrent Details For "Love Ke Liye Kuch Bhi Karega (2001) Untouched 1080p WEBHD Team Jio"

Love Ke Liye Kuch Bhi Karega (2001) Untouched 1080p WEBHD Team Jio

Download this torrent | Magnet Download
Health:
Seeds: 0
Leechers: 5
Completed:
Last Checked: 01-07-2018 16:26:10
External Torrent
Update Stats



Images Host

Poster


Watch-Free-HD     Download

Details
Name:Love Ke Liye Kuch Bhi Karega (2001) Untouched 1080p WEBHD Team Jio
Description:




Quote:

Format                                   : MPEG-4
Format profile                           : Base Media
Codec ID                                 : isom (isom/iso2/avc1/mp41)
File size                                : 2.11 GiB
Duration                                 : 2 h 10 min
Overall bit rate                         : 2 314 kb/s
Writing application                      : Lavf56.23.105

Video
ID                                       : 1
Format                                   : AVC
Format/Info                              : Advanced Video Codec
Format profile                           : [email protected]
Format settings                          : CABAC / 3 Ref Frames
Format settings, CABAC                   : Yes
Format settings, RefFrames               : 3 frames
Codec ID                                 : avc1
Codec ID/Info                            : Advanced Video Coding
Duration                                 : 2 h 10 min
Bit rate                                 : 2 182 kb/s
Width                                    : 1 920 pixels
Height                                   : 1 080 pixels
Display aspect ratio                     : 16:9
Frame rate mode                          : Constant
Frame rate                               : 25.000 FPS
Color space                              : YUV
Chroma subsampling                       : 4:2:0
Bit depth                                : 8 bits
Scan type                                : Progressive
Bits/(Pixel*Frame)                       : 0.042
Stream size                              : 1.99 GiB (94%)
Color range                              : Limited
Color primaries                          : BT.709
Transfer characteristics                 : BT.709
Matrix coefficients                      : BT.709

Audio
ID                                       : 2
Format                                   : AAC
Format/Info                              : Advanced Audio Codec
Format profile                           : LC
Codec ID                                 : mp4a-40-2
Duration                                 : 2 h 10 min
Bit rate mode                            : Constant
Bit rate                                 : 126 kb/s
Channel(s)                               : 2 channels
Channel positions                        : Front: L R
Sampling rate                            : 44.1 kHz
Frame rate                               : 43.066 FPS (1024 SPF)
Compression mode                         : Lossy
Stream size                              : 117 MiB (5%)
Default                                  : Yes
Alternate group                          : 1

           
Category:Movies > WEB-HD
Lang:Hindi
Total Size:2.11 GB
Info Hash:2fb4c0a752fdc22754270e6eb8371dd38a8a4eb4
Added By:TeamJio
Date Added:08-03-2018 03:21:55
Downloads:168

Ratings:Not Yet Rated (Log in to rate it)


Tracker:
http://jiotorrents.net/announce.php?pk=a5b7d3d9ebc87c84db8da7561fde639d520d476d


File List: 


Comments

No comments still posted

Top
Copyright 2018 DownloadHD -|- Page Generated In 1.947616 secs.
-|- RSS Feed -|- Feed Info
Kurs krawiecki 160h | Леонид Пляскин | Instrumental