Login
Username:
Password:
[Signup]
[Recover Account]


Browse Torrents

Poll


You must be logged in to view polls



Latest Torrents
Villain (2018) Ben...
- [Size: 558.96 MB]

Villain (2018) Ben...
- [Size: 1.49 GB]

Mirzapur (2018) Se...
- [Size: 3.39 GB]

The.Daily.Show.201...
- [Size: 311.67 MB]

How.to.Get.Away.wi...
- [Size: 1.17 GB]


Torrent Details For "Attack of the Southern Fried Zombies 2017 720p BluRay x264 AAC"

Attack of the Southern Fried Zombies 2017 720p BluRay x264 AAC

Download this torrent | Magnet Download
Health:
Seeds: 0
Leechers: 13
Completed:
Last Checked: 27-08-2018 02:14:08
External Torrent
Update Stats



Images Host

Poster
No poster


Watch-Free-HD     Download

Details
Name:Attack of the Southern Fried Zombies 2017 720p BluRay x264 AAC
Description:

 


General
Format                                   : Matroska
Format version                           : Version 4 / Version 2
File size                                : 879 MiB
Duration                                 : 1 h 23 min
Overall bit rate                         : 1 478 kb/s

Video
ID                                       : 1
Format                                   : AVC
Format/Info                              : Advanced Video Codec
Format profile                           : [email protected]
Format settings                          : CABAC / 4 Ref Frames
Format settings, CABAC                   : Yes
Format settings, RefFrames               : 4 frames
Codec ID                                 : V_MPEG4/ISO/AVC
Duration                                 : 1 h 23 min
Bit rate                                 : 1 400 kb/s
Width                                    : 1 280 pixels
Height                                   : 720 pixels
Display aspect ratio                     : 16:9
Frame rate mode                          : Constant
Frame rate                               : 23.976 (24000/1001) FPS
Color space                              : YUV
Chroma subsampling                       : 4:2:0
Bit depth                                : 8 bits
Scan type                                : Progressive
Bits/(Pixel*Frame)                       : 0.063
Stream size                              : 821 MiB (93%)
Writing library                          : x264 core 148 r2708 86b7198
Default                                  : Yes
Forced                                   : No

Audio
ID                                       : 2
Format                                   : AAC
Format/Info                              : Advanced Audio Codec
Format profile                           : LC
Codec ID                                 : A_AAC-2
Duration                                 : 1 h 23 min
Bit rate                                 : 96.0 kb/s
Channel(s)                               : 2 channels
Channel positions                        : Front: L R
Sampling rate                            : 44.1 kHz
Frame rate                               : 43.066 FPS (1024 SPF)
Compression mode                         : Lossy
Stream size                              : 57.1 MiB (6%)
Language                                 : English
Default                                  : Yes
Forced                                   : No





           





Category:Movies > 720P Bluray
Lang:English  English
Total Size:879.18 MB
Info Hash:a44940cf810cd039f554ac0d201e8ad7666e41b7
Added By:Freaky
Date Added:05-03-2018 22:54:54
Downloads:83

Ratings:Not Yet Rated (Log in to rate it)


Tracker:
udp://tracker.pirateparty.gr:6969/announce

This Torrent also has backup trackers
URLSeedersLeechersCompleted
http://tracker.opentrackr.org/announce000
http://tracker.vanitycore.co:6969/announce010
http://public.popcorn-tracker.org:6969/announce010


File List: 


Comments

No comments still posted

Top
Copyright 2018 DownloadHD -|- Page Generated In 4.466009 secs.
-|- RSS Feed -|- Feed Info