Login
Username:
Password:
[Signup]
[Recover Account]


Browse Torrents

Poll


You must be logged in to view polls



Latest Torrents
Ekon.Eken-[2018]-[...
- [Size: 1.99 GB]

Madras Cafe (2013)...
- [Size: 1.69 GB]

Crazy Frog - The B...
- [Size: 111.67 MB]

Beyond.The.Sky.201...
- [Size: 16.97 GB]

The.Happytime.Murd...
- [Size: 4.45 GB]


Torrent Details For "Last Knights 2015 720p x264 Esub BluRay Dual Audio English Hindi GOPISAHI"

Last Knights 2015 720p x264 Esub BluRay Dual Audio English Hindi GOPISAHI

Download this torrent | Magnet Download
Health:
Seeds: 0
Leechers: 4
Completed: 1,006 
Last Checked: 23-07-2018 09:25:22
External Torrent
Update Stats



Images Host

Poster


iMDB
Imdb Picture Title: Last Knights
Year: 2015
Runtime: 115 minutes
Votes: 32838
Rating: 6.2/10
Language: English
Country: UK, South Korea
All Genres: Action, Adventure
Plot Outline: A fallen warrior rises against a corrupt and sadistic ruler to avenge his dishonored master.
Director: Kazuaki Kiriya
Writing By: Michael Konyves,Dove Sussman,
Produced By: Ryan S. Black,Barry Brooker,Joyce Heeyoung Cho,Chip Diggins,Gary Hamilton,Kate Hong,Luci Y. Kim,Kazuaki Kiriya,Russell Levine,Andrew Mann,Michelle Chubarov McIntosh,Vaclav Mottl,Jay Stern,Jim Thompson,Nick Thurlow,Kevan Van Thompson,Stan Wertlieb,
Music: Satnam Ramgotra Martin Tillman
Cast:
Clive Owen as Raiden
Morgan Freeman as Bartok
Cliff Curtis as Lt. Cortez
Aksel Hennie as Geza Mott
Tsuyoshi Ihara as Ito
Sung-Ki Ahn as Auguste
Payman Maadi as Emperor
Si-yeon Park as Hannah
Noah Silver as Gabriel
Ayelet Zurer as Naomi
Trailers:
Official Trailer
Last Knights Official Trailer


Watch-Free-HD     Download

Details
Name:Last Knights 2015 720p x264 Esub BluRay Dual Audio English Hindi GOPISAHI
Description:

Format                         : Matroska
Format version                 : Version 4 / Version 2
File size                      : 441 MiB
Duration                       : 1 h 48 min
Overall bit rate               : 568 kb/s
Movie name                     : Last Knights 2015 GOPISAHI

Video
Format                         : AVC
Codec ID                       : V_MPEG4/ISO/AVC
Duration                       : 1 h 48 min
Bit rate                       : 400 kb/s
Width                          : 1 280 pixels
Height                         : 528 pixels
Display aspect ratio           : 2.40:1
Frame rate mode                : Constant
Frame rate                     : 23.976 (24000/1001) FPSsive
Bits/(Pixel*Frame)             : 0.025
Stream size                    : 311 MiB (70%)
Title                          : GOPISAHI
Writing library                : x264 core 155 r2893 b00bcaf

Audio #1
Format                         : AAC
Duration                       : 1 h 48 min
Bit rate                       : 83.6 kb/s
Channel(s)                     : 6 channels
Channel positions              : Front: L C R, Side: L R, LFE
Sampling rate                  : 44.1 kHz
Frame rate                     : 43.066 FPS (1024 SPF)
Compression mode               : Lossy
Stream size                    : 65.0 MiB (15%)
Title                          : GOPISAHI
Language                       : Hindi

Audio #2
Format                         : AAC
Duration                       : 1 h 48 min
Bit rate                       : 81.2 kb/s
Channel(s)                     : 6 channels
Channel positions              : Front: L C R, Side: L R, LFE
Sampling rate                  : 44.1 kHz
Frame rate                     : 43.066 FPS (1024 SPF)
Compression mode               : Lossy
Stream size                    : 63.0 MiB (14%)
Language                       : English

Text
Language                       : English


Category:Movies > Hollywood Dub
Lang:Hindi
Total Size:440.79 MB
Info Hash:686663d214a5053491a900e3b8222b44ee3885ff
Added By:gopisahi
Date Added:05-03-2018 14:18:27
Downloads:315

Ratings:Not Yet Rated (Log in to rate it)


Tracker:
udp://9.rarbg.com:2740/announce


File List: 


Comments

No comments still posted

Top
Copyright 2018 DownloadHD -|- Page Generated In 1.874148 secs.
-|- RSS Feed -|- Feed Info
Google फ़ोटो | Season 3 - Episode 12 s03e12 | Ace Ventura: Pet Detective (1994) 720p BRRip 750MB