Login
Username:
Password:
[Signup]
[Recover Account]


Browse Torrents

Poll


You must be logged in to view polls



Latest Torrents
Weight.2018.HDRip....
- [Size: 1.35 GB]

Weight.2018.HDRip....
- [Size: 1.35 GB]

Nightshift.2018.HD...
- [Size: 706.57 MB]

Jimmy.Fallon.2018....
- [Size: 579.69 MB]

Jimmy.Fallon.2018....
- [Size: 582.40 MB]


Torrent Details For "Race 2008 Hindi 720p Blu-Ray x264 DTS { TaRa }.mkv"

Race 2008 Hindi 720p Blu-Ray x264 DTS { TaRa }.mkv

Download this torrent | Magnet Download
Health:
Seeds: 0
Leechers: 13
Completed: 97 
Last Checked: 16-09-2018 13:02:47
External Torrent
Update Stats



Images Host

Poster


Watch-Free-HD     Download

Details
Name:Race 2008 Hindi 720p Blu-Ray x264 DTS { TaRa }.mkv
Description:

Quote:

Race 2008 Hindi 720p Blu-Ray x264 DTS { TaRa }.mkv


===================================================================
General
Complete name               : Race 2008 Hindi 720p Blu-Ray x264 DTS { TaRa }.mkv
Format                      : Matroska
Format version              : Version 4 / Version 2
File size                   : 3.70 GiB
Duration                    : 2 h 35 min
Overall bit rate mode       : Variable
Overall bit rate            : 3 412 kb/s
===================================================================
Video
ID                          : 1
Format                      : AVC
Format/Info                 : Advanced Video Codec
Format profile              : [email protected]
Format settings, CABAC      : Yes
Format settings, ReFrames   : 3 frames
Codec ID                    : V_MPEG4/ISO/AVC
Duration                    : 2 h 35 min
Bit rate mode               : Variable
Bit rate                    : 2 384 kb/s
Maximum bit rate            : 14.0 Mb/s
Width                       : 1 280 pixels
Height                      : 544 pixels
Display aspect ratio        : 2.35:1
Frame rate mode             : Constant
Frame rate                  : 30.000 FPS
Color space                 : YUV
Chroma subsampling          : 4:2:0
Bit depth                   : 8 bits
Scan type                   : Progressive
Bits/(Pixel*Frame)          : 0.114
Stream size                 : 2.58 GiB (70%)
Title                       : .....::::: TaRa :::::.....
Language                    : Hindi
Default                     : Yes
Forced                      : No
===================================================================
Audio
ID                          : 2
Format                      : DTS
Format/Info                 : Digital Theater Systems
Mode                        : 16
Format settings, Endianness : Big
Codec ID                    : A_DTS
Duration                    : 2 h 35 min
Bit rate mode               : Constant
Bit rate                    : 1 025 kb/s
Channel(s)                  : 6 channels
Channel positions           : Front: L C R, Side: L R, LFE
Sampling rate               : 44.1 kHz
Frame rate                  : 86.133 FPS (512 spf)
Bit depth                   : 16 bits
Compression mode            : Lossy
Stream size                 : 1.11 GiB (30%)
Title                       : .....::::: TaRa :::::.....
Language                    : Hindi
Default                     : Yes
Forced                      : No
===================================================================
























Category:Movies > Bollywood
Lang:Hindi
Total Size:3.70 GB
Info Hash:5242b39f46f16d9c90eec9d11256b04f00511f76
Added By:SkTaRa
Date Added:05-04-2017 03:04:13
Downloads:448

Ratings:Not Yet Rated (Log in to rate it)


Tracker:
udp://tracker.openbittorrent.com:80/announce

This Torrent also has backup trackers
URLSeedersLeechersCompleted
http://www.skyts.net:6969/announce000
http://www.opentrackr.org/announce000
http://mgtracker.org:2710/announce000
http://5.79.83.193:2710/announce002
http://109.121.134.121:1337/announce000


File List: 


Comments

<< Previous      Next >>
1 - 1

[Report] Posted: 10-04-2017 at 18:59:52
kdas92



Need seed uploader.stuck at 47.4%

1 - 1
<< Previous      Next >>


Top
Copyright 2018 DownloadHD -|- Page Generated In 3.272802 secs.
-|- RSS Feed -|- Feed Info
speed dial | Thriller | バーベキュー用品