Login
Username:
Password:
[Signup]
[Recover Account]


Browse Torrents

Poll


You must be logged in to view polls



Latest Torrents
Madras Cafe (2013)...
- [Size: 1.69 GB]

Crazy Frog - The B...
- [Size: 111.67 MB]

Beyond.The.Sky.201...
- [Size: 16.97 GB]

The.Happytime.Murd...
- [Size: 4.45 GB]

The.Ice.Harvest.20...
- [Size: 6.56 GB]


Torrent Details For "The.Death.of.Stalin.2017.720p.WEB-DL.AAC.LLG"

The.Death.of.Stalin.2017.720p.WEB-DL.AAC.LLG

Download this torrent | Magnet Download
Health:
Seeds: 0
Leechers: 16
Completed:
Last Checked: 01-03-2018 20:16:58
External Torrent
Update Stats



Images Host

Poster
No poster


iMDB
Imdb Picture Original Title: The Death of Stalin
Title: La mort de Staline
Year: 2017
Runtime: 106 minutes
Votes: 5828
Rating: 7.6/10
Language: English
Country: France, UK, Belgium
All Genres: Comedy, History
Plot Outline: Follows the Soviet dictator's last days and depicts the chaos of the regime after his death.
Tagline: Everybody wants a piece
Director: Armando Iannucci
Writing By: Armando Iannucci,David Schneider,Ian Martin,Peter Fellows,Fabien Nury,Thierry Robin,Fabien Nury,
Produced By: Jean-Christophe Colson,Giles Daoust,Ga√ętan David,Catherine Dumonceaux,Nicolas Duval Adassovsky,Kevin Loader,Andr√© Logie,Sarah Wheale,Laurent Zeitoun,Yann Zenou,
Music: Christopher Willis
Cast:
Olga Kurylenko as Maria Veniaminovna Yudina
Tom Brooke as Sergei
Paddy Considine as Andreyev
Justin Edwards as Spartak Sokolov - Conductor 1
Adrian McLoughlin as Josef Stalin
Simon Russell Beale as Lavrenti Beria
Jeffrey Tambor as Georgy Malenkov
Steve Buscemi as Nikita Khrushchev
Michael Palin as Vyacheslav Molotov
Paul Ready as NKVD Officer Delov
Trailers:
Official Trailer
Official Trailer #2
Official Trailer


Watch-Free-HD     Download

Details
Name:The.Death.of.Stalin.2017.720p.WEB-DL.AAC.LLG
Description:
******************************Thumbnail:**********************

 

******************************Screenshots:********************

 Screenshot 1

 Screenshot 2

 Screenshot 3

 Screenshot 4

 Screenshot 5

 Screenshot 6

 Screenshot 7

 Screenshot 8

 Screenshot 9

 Screenshot 0

**************************************************************

Complete name                            : The.Death.of.Stalin.2017.720p.WEB-DL.AAC.LLG.mp4
Format                                   : MPEG-4
Format profile                           : Base Media
Codec ID                                 : isom (isom/iso2/avc1/mp41)
File size                                : 967 MiB
Duration                                 : 1 h 46 min
Overall bit rate                         : 1 265 kb/s
Writing application                      : Lavf57.56.101

Video
ID                                       : 1
Format                                   : AVC
Format/Info                              : Advanced Video Codec
Format profile                           : [email protected]
Format settings                          : CABAC / 4 Ref Frames
Format settings, CABAC                   : Yes
Format settings, RefFrames               : 4 frames
Codec ID                                 : avc1
Codec ID/Info                            : Advanced Video Coding
Duration                                 : 1 h 46 min
Bit rate                                 : 1 200 kb/s
Width                                    : 1 280 pixels
Height                                   : 690 pixels
Display aspect ratio                     : 1.85:1
Frame rate mode                          : Constant
Frame rate                               : 24.000 FPS
Color space                              : YUV
Chroma subsampling                       : 4:2:0
Bit depth                                : 8 bits
Scan type                                : Progressive
Bits/(Pixel*Frame)                       : 0.057
Stream size                              : 913 MiB (94%)

Audio
ID                                       : 2
Format                                   : AAC
Format/Info                              : Advanced Audio Codec
Format profile                           : LC
Codec ID                                 : mp4a-40-2
Duration                                 : 1 h 46 min
Bit rate mode                            : Constant
Bit rate                                 : 64.6 kb/s
Channel(s)                               : 2 channels
Channel positions                        : Front: L R
Sampling rate                            : 48.0 kHz
Frame rate                               : 46.875 FPS (1024 SPF)
Compression mode                         : Lossy
Stream size                              : 49.3 MiB (5%)
Language                                 : English
Category:Movies > WEB-HD
Lang:English  English
Total Size:1,003.10 MB
Info Hash:a7bb36cbc0902eee9050905c3219a5470ec342ec
Added By:Unknown
Date Added:01-03-2018 16:13:54
Downloads:59

Ratings:Not Yet Rated (Log in to rate it)


Tracker:
udp://tracker.openbittorrent.com:80/announce


File List: 


Comments

No comments still posted

Top
Copyright 2018 DownloadHD -|- Page Generated In 0.333006 secs.
-|- RSS Feed -|- Feed Info
Aktive Freizeit | Nike Air Max Sequent 3 Sneaker Turnschuhe Herren Herrenschuhe Farben Auswahl Neu | Wii Red Mini Rvl-201 Video Console Bundle W/wii Sports + Wwe Sd Vs Raw 2011