Login
Username:
Password:
[Signup]
[Recover Account]


Browse Torrents

Poll


You must be logged in to view polls



Latest Torrents
Nightshift.2018.HD...
- [Size: 706.57 MB]

Jimmy.Fallon.2018....
- [Size: 579.69 MB]

Jimmy.Fallon.2018....
- [Size: 582.40 MB]

The.Voice.S15E25.X...
- [Size: 1.51 GB]

The.Voice.S15E25.W...
- [Size: 1.17 GB]


Torrent Details For "Nikka Zaildar 2 2017 HD 720p Punjabi GOPISAHI"

Nikka Zaildar 2 2017 HD 720p Punjabi GOPISAHI

Download this torrent | Magnet Download
Health:
Seeds: 3
Leechers: 5
Completed: 3,846 
Last Checked: 11-12-2018 06:49:04
External Torrent
Update Stats



Images Host

Poster


iMDB
Imdb Picture Title: Nikka Zaildar 2
Year: 2017
Runtime: 150 minutes
Votes: 130
Rating: 6.1/10
Language: Panjabi
Country: India
All Genres: Drama
Plot Outline: Set in the 80s, A man has an affair with his nephews teacher, but just before the wedding he gets married to another girl.
Director: Simerjit Singh

Produced By: Amneet Sher Singh,
Cast:
Ammy Virk as Nikka Zaildar
Sonam Bajwa as Roop Kaur
Wamiqa Gabbi as Saawan Kaur
Nirmal Rishi as Deso Kaur (Nikka's Bebe)
Sharry Maan as Special Appearance
Karamjit Anmol as
Gurpreet Bhangu as
Rana Ranbir as Nikka's Brother
Parminder Gill as Roop's Mother
Sardar Sohi as Nikka's father


Watch-Free-HD     Download

Details
Name:Nikka Zaildar 2 2017 HD 720p Punjabi GOPISAHI
Description:
                 
Format                         : Matroska
Format version                 : Version 4 / Version 2
File size                      : 578 MiB
Duration                       : 2 h 16 min
Overall bit rate               : 592 kb/s
Movie name                     : Nikka Zaildar 2 2017 HD 720p Punjabi GOPISAHI


Video
Format                         : AVC
Codec ID                       : V_MPEG4/ISO/AVC
Duration                       : 2 h 16 min
Bit rate                       : 500 kb/s
Width                          : 1 280 pixels
Height                         : 536 pixels
Display aspect ratio           : 2.40:1
Frame rate mode                : Constant
Frame rate                     : 30.000 FPS
Color space                    : YUV
Chroma subsampling             : 4:2:0
Bit depth                      : 8 bits
Scan type                      : Progressive
Bits/(Pixel*Frame)             : 0.024
Stream size                    : 488 MiB (84%)
Title                          : GOPISAHI
Writing library                : x264 core 155 r2893 b00bcaf
Language                       : Panjabi

Audio
Format                         : AAC
Duration                       : 2 h 16 min
Bit rate                       : 89.6 kb/s
Channel(s)                     : 6 channels
Channel positions              : Front: L C R, Side: L R, LFE
Sampling rate                  : 44.1 kHz
Frame rate                     : 43.066 FPS (1024 SPF)
Compression mode               : Lossy
Stream size                    : 87.5 MiB (15%)
Title                          : GOPISAHI
Language                       : Panjabi


Category:Movies > Punjabi
Lang:Punjabi
Total Size:577.76 MB
Info Hash:df8b66255dc136517f9eef673d1d851ba8f48287
Added By:gopisahi
Date Added:26-02-2018 04:06:32
Downloads:415

Ratings:Not Yet Rated (Log in to rate it)


Tracker:
udp://9.rarbg.com:2740/announce


File List: 


Comments

No comments still posted

Top
Copyright 2018 DownloadHD -|- Page Generated In 2.058103 secs.
-|- RSS Feed -|- Feed Info
柏·梅娜妲 | Vedi Prodotto | Code:Breaker OVA English Subbed