Login
Username:
Password:
[Signup]
[Recover Account]


Browse Torrents

Poll


You must be logged in to view polls



Latest Torrents
Nightshift.2018.HD...
- [Size: 706.57 MB]

Jimmy.Fallon.2018....
- [Size: 579.69 MB]

Jimmy.Fallon.2018....
- [Size: 582.40 MB]

The.Voice.S15E25.X...
- [Size: 1.51 GB]

The.Voice.S15E25.W...
- [Size: 1.17 GB]


Torrent Details For "Dil (1990) HDRip 1080p x264 AAC - Arabic Sub { TaRa }.mkv"

Dil (1990) HDRip 1080p x264 AAC - Arabic Sub { TaRa }.mkv

Download this torrent | Magnet Download
Health:
Seeds: 0
Leechers: 58
Completed: 115 
Last Checked: 02-12-2017 10:15:26
External Torrent
Update Stats



Images Host

Poster


Watch-Free-HD     Download

Details
Name:Dil (1990) HDRip 1080p x264 AAC - Arabic Sub { TaRa }.mkv
Description:

Quote:

Dil (1990) HDRip 1080p x264 AAC - Arabic Sub { TaRa }.mkv


===================================================================
General
Complete name               : Dil (1990) HDRip 1080p x264 AAC - Arabic Sub { TaRa }.mkv
Format                      : Matroska
Format version              : Version 4 / Version 2
File size                   : 1.96 GiB
Duration                    : 2 h 55 min
Overall bit rate mode       : Variable
Overall bit rate            : 1 600 kb/s
===================================================================
Video
ID                          : 1
Format                      : AVC
Format/Info                 : Advanced Video Codec
Format profile              : [email protected]
Format settings, CABAC      : Yes
Format settings, ReFrames   : 3 frames
Codec ID                    : V_MPEG4/ISO/AVC
Duration                    : 2 h 55 min
Bit rate mode               : Variable
Bit rate                    : 1 502 kb/s
Maximum bit rate            : 40.0 Mb/s
Width                       : 1 920 pixels
Height                      : 816 pixels
Display aspect ratio        : 2.35:1
Frame rate mode             : Constant
Frame rate                  : 23.976 (24000/1001) FPS
Color space                 : YUV
Chroma subsampling          : 4:2:0
Bit depth                   : 8 bits
Scan type                   : Progressive
Bits/(Pixel*Frame)          : 0.040
Stream size                 : 1.84 GiB (94%)
Title                       : .....::::: TaRa ::::.....
Language                    : Hindi
Default                     : Yes
Forced                      : No
===================================================================
Audio
ID                          : 2
Format                      : AAC
Format/Info                 : Advanced Audio Codec
Format profile              : LC
Codec ID                    : A_AAC
Duration                    : 2 h 55 min
Bit rate                    : 96.0 kb/s
Channel(s)                  : 2 channels
Channel positions           : Front: L R
Sampling rate               : 44.1 kHz
Frame rate                  : 43.066 FPS (1024 spf)
Compression mode            : Lossy
Delay relative to video     : 10 ms
Stream size                 : 121 MiB (6%)
Title                       : .....::::: TaRa ::::.....
Language                    : Hindi
Default                     : Yes
Forced                      : No
===================================================================




























Category:Movies > Bollywood
Lang:Hindi
Total Size:1.96 GB
Info Hash:cf14268dfbbc3cac7e036c20eb5d6fff843c8bf7
Added By:SkTaRa
Date Added:05-04-2017 02:53:52
Downloads:651

Ratings:Not Yet Rated (Log in to rate it)


Tracker:
udp://tracker.openbittorrent.com:80/announce

This Torrent also has backup trackers
URLSeedersLeechersCompleted
http://www.skyts.net:6969/announce000
http://www.opentrackr.org/announce000
http://mgtracker.org:2710/announce000
http://5.79.83.193:2710/announce036
http://109.121.134.121:1337/announce000


File List: 


Comments

No comments still posted

Top
Copyright 2018 DownloadHD -|- Page Generated In 3.832505 secs.
-|- RSS Feed -|- Feed Info
Real Humans | Marriage | Access this essay