Login
Username:
Password:
[Signup]
[Recover Account]


Browse Torrents

Poll


You must be logged in to view polls



Latest Torrents
Nightshift.2018.HD...
- [Size: 706.57 MB]

Jimmy.Fallon.2018....
- [Size: 579.69 MB]

Jimmy.Fallon.2018....
- [Size: 582.40 MB]

The.Voice.S15E25.X...
- [Size: 1.51 GB]

The.Voice.S15E25.W...
- [Size: 1.17 GB]


Torrent Details For "Policegiri (2013) HDRip 720p Hindi x264 ACC -LatestHDMovies"

Policegiri (2013) HDRip 720p Hindi x264 ACC -LatestHDMovies

Download this torrent | Magnet Download
Health:
Seeds: 0
Leechers: 12
Completed: 299 
Last Checked: 07-09-2018 08:53:00
External Torrent
Update Stats



Images Host

Poster


iMDB
Imdb Picture Title: Policegiri
Year: 2013
Runtime: 141 minutes
Votes: 1169
Rating: 4.1/10
Language: Hindi
Country: India
All Genres: Action, Comedy, Crime
Plot Outline: ACP Rudra faces a bunch of challenges after he locks horns with a notorious criminal Nagori Subramanium.
Tagline: No Dadagiri. No Gundagiri. Only...
Director: K.S. Ravikumar
Writing By: Hari,K.S. Ravikumar,Sajid,Farhad Samji,
Produced By: Rahul Aggarwal,T.P. Aggarwal,Manoj Chaturvedi,Yogiraj Shetty,Vishal Singh,Abhay Sinha,
Cast:
Sanjay Dutt as DCP Rudra Adityadevraj
Prachi Desai as Sehar
Prakash Raj as Nagori Subramaniyam
Om Puri as Comissioner
Rajpal Yadav as Tutu
Rajat Rawall as Toto
Manoj Joshi as Inspector Javed
Mukesh Tiwari as Padam
Arun Bali as Minister
Ehsan Khan as Sehar's Father


Watch-Free-HD     Download

Details
Name:Policegiri (2013) HDRip 720p Hindi x264 ACC -LatestHDMovies
Description:




>>>>>>>>>>SAMPLE<<<<<<<<<<
 http://oload.stream/f/IIORLa_...-LatestHDMovies-.mp4


General
Complete name               : Policegiri (2013) HDRip 720p Hindi x264 ACC -LatestHDMovies.mp4
Format                      : MPEG-4
Format profile              : Base Media
Codec ID                    : isom (isom/iso2/avc1/mp41)
File size                   : 1.21 GiB
Duration                    : 2 h 14 min
Overall bit rate            : 1 286 kb/s
Movie name                  : LatestHDMovies
Writing application         : Lavf57.83.100
Cover                       : Yes

Video
ID                          : 1
Format                      : AVC
Format/Info                 : Advanced Video Codec
Format profile              : [email protected]
Format settings             : CABAC / 5 Ref Frames
Format settings, CABAC      : Yes
Format settings, ReFrames   : 5 frames
Codec ID                    : avc1
Codec ID/Info               : Advanced Video Coding
Duration                    : 2 h 14 min
Bit rate                    : 1 152 kb/s
Width                       : 1 280 pixels
Height                      : 544 pixels
Display aspect ratio        : 2.35:1
Frame rate mode             : Constant
Frame rate                  : 30.000 FPS
Color space                 : YUV
Chroma subsampling          : 4:2:0
Bit depth                   : 8 bits
Scan type                   : Progressive
Bits/(Pixel*Frame)          : 0.055
Stream size                 : 1.08 GiB (89%)
Title                       : LatestHDMovies
Writing library             : x264 core 148 r2643 5c65704
Encoding settings           : cabac=1 / ref=5 / deblock=1:0:0 / analyse=0x3:0x113 / me=hex / subme=7 / psy=1 / psy_rd=1.00:0.00 / mixed_ref=1 / me_range=16 / chroma_me=1 / trellis=1 / 8x8dct=1 / cqm=0 / deadzone=21,11 / fast_pskip=1 / chroma_qp_offset=-2 / threads=8 / lookahead_threads=8 / sliced_threads=1 / slices=8 / nr=0 / decimate=1 / interlaced=0 / bluray_compat=0 / constrained_intra=0 / bframes=0 / weightp=2 / keyint=250 / keyint_min=25 / scenecut=40 / intra_refresh=0 / rc=abr / mbtree=0 / bitrate=1152 / ratetol=1.0 / qcomp=0.60 / qpmin=0 / qpmax=69 / qpstep=4 / ip_ratio=1.40 / aq=1:1.00
Language                    : English

Audio
ID                          : 2
Format                      : AAC
Format/Info                 : Advanced Audio Codec
Format profile              : LC
Codec ID                    : mp4a-40-2
Duration                    : 2 h 14 min
Bit rate mode               : Constant
Bit rate                    : 129 kb/s
Channel(s)                  : 2 channels
Channel positions           : Front: L R
Sampling rate               : 44.1 kHz
Frame rate                  : 43.066 FPS (1024 SPF)
Compression mode            : Lossy
Stream size                 : 124 MiB (10%)
Title                       : LatestHDMovies
Language                    : Hindi
Default                     : Yes
Alternate group             : 1




 
               
Category:Movies > Bollywood
Lang:Hindi
Total Size:1.21 GB
Info Hash:c57e529f8b8b639facbb632db616676a7531775c
Added By:LatestHDMovies
Date Added:23-02-2018 15:41:24
Downloads:396

Ratings:Not Yet Rated (Log in to rate it)


Tracker:
udp://tracker.openbittorrent.com:80/announce


File List: 


Comments

No comments still posted

Top
Copyright 2018 DownloadHD -|- Page Generated In 3.015443 secs.
-|- RSS Feed -|- Feed Info
第68集 | Marte (2016) HDTV 720p AC3 5.1 | Španske Serije