Login
Username:
Password:
[Signup]
[Recover Account]


Browse Torrents

Poll


You must be logged in to view polls



Latest Torrents
18+ DAD FRIEND (20...
- [Size: 579.60 MB]

Rita Ora - Phoenix...
- [Size: 129.09 MB]

Batti Gul Meter Ch...
- [Size: 1.54 GB]

James.Corden.2018....
- [Size: 627.02 MB]

Stephen.Colbert.20...
- [Size: 649.06 MB]


Torrent Details For "Lootera (2013) Hindi 720p WebHD x264 AAC { TaRa }.mkv"

Lootera (2013) Hindi 720p WebHD x264 AAC { TaRa }.mkv

Download this torrent | Magnet Download
Health:
Seeds: 0
Leechers: 2
Completed:
Last Checked: 05-10-2018 08:59:49
External Torrent
Update Stats



Images Host

Poster


Watch-Free-HD     Download

Details
Name:Lootera (2013) Hindi 720p WebHD x264 AAC { TaRa }.mkv
Description:

Quote:



===================================================================
General
Complete name               :Lootera (2013) Hindi 720p WebHD x264 AAC { TaRa }.mkv
Format                      : Matroska
Format version              : Version 4 / Version 2
File size                   : 1.39 GiB
Duration                    : 2 h 18 min
Overall bit rate            : 1 432 kb/s
===================================================================
Video
ID                          : 1
Format                      : AVC
Format/Info                 : Advanced Video Codec
Format profile              : [email protected]
Format settings, CABAC      : Yes
Format settings, ReFrames   : 5 frames
Codec ID                    : V_MPEG4/ISO/AVC
Duration                    : 2 h 18 min
Bit rate                    : 1 250 kb/s
Width                       : 1 280 pixels
Height                      : 544 pixels
Display aspect ratio        : 2.35:1
Original display aspect rat : 2.35:1
Frame rate mode             : Constant
Frame rate                  : 24.000 FPS
Color space                 : YUV
Chroma subsampling          : 4:2:0
Bit depth                   : 8 bits
Scan type                   : Progressive
Bits/(Pixel*Frame)          : 0.075
Stream size                 : 1.20 GiB (87%)
Title                       : .....::::: TaRa :::::.....
Language                    : Hindi
Default                     : Yes
Forced                      : No
===================================================================
Audio
ID                          : 2
Format                      : AAC
Format/Info                 : Advanced Audio Codec
Format profile              : LC
Codec ID                    : A_AAC
Duration                    : 2 h 18 min
Bit rate                    : 192 kb/s
Channel(s)                  : 2 channels
Channel positions           : Front: L R
Sampling rate               : 44.1 kHz
Frame rate                  : 43.066 FPS (1024 spf)
Compression mode            : Lossy
Stream size                 : 188 MiB (13%)
Title                       : .....::::: TaRa :::::.....
Language                    : Hindi
Default                     : Yes
Forced                      : No
===================================================================


                                     










Category:Movies > Bollywood
Lang:Hindi
Total Size:1.39 GB
Info Hash:7e38a4deefbdb717d09cbb192dc1307d58a1fa41
Added By:SkTaRa
Date Added:04-04-2017 15:45:05
Downloads:371

Ratings:Not Yet Rated (Log in to rate it)


Tracker:
udp://tracker.ccc.de:80/announce

This Torrent also has backup trackers
URLSeedersLeechersCompleted
http://tracker.dler.org:6969/announce000
http://ipv4.tracker.harry.lu:80/announce302


File List: 


Comments

<< Previous      Next >>
1 - 1

[Report] Posted: 04-04-2017 at 18:52:29
vahgar



Thanks for the up

1 - 1
<< Previous      Next >>


Top
Copyright 2018 DownloadHD -|- Page Generated In 4.118806 secs.
-|- RSS Feed -|- Feed Info
└ Creatieve hobby's | mehr Tablet gibt es hier... | Paul Soter