Login
Username:
Password:
[Signup]
[Recover Account]


Browse Torrents

Poll


You must be logged in to view polls



Latest Torrents
Master.of.Arms.S01...
- [Size: 983.73 MB]

Master.of.Arms.S01...
- [Size: 326.47 MB]

Z.Nation.S05E07.WE...
- [Size: 601.09 MB]

Z.Nation.S05E07.72...
- [Size: 820.80 MB]

Dead Awake 2010 x2...
- [Size: 593.33 MB]


Torrent Details For "Wunderland.2018.720p.WEBRip.x264.AAC.LLG"

Wunderland.2018.720p.WEBRip.x264.AAC.LLG

Download this torrent | Magnet Download
Health:
Seeds: 0
Leechers: 3
Completed:
Last Checked: 30-03-2018 14:51:38
External Torrent
Update Stats



Images Host

Poster
No poster


iMDB
Imdb Picture Title: Wunderland
Year: 2018
Votes: 147
Rating: 8.9/10
Language: English
Country: USA
All Genres: War
Plot Outline: Christmas 1944, The Germans make one final push against the attacking allied armies in the West. Lt. Robert Cappa and his platoon of 2nd Infantry Division soldiers have been ordered to hold...
Director: Steven Luke

Produced By: Dean Bloxom,Rick Brulte,
Music: Harrison Mountan
Cast:
Tom Berenger as Major McCulley
Wade Everett as Sergeant Roberts
Steven Luke as Lt. Cappa
Andrew Stecker as 'Doc' Anderson
Cody Fleury as Rudy
Ryan J. Gilmer as German Soldier
Aaron Courteau as Captain Joe Daniels
Jeremy Michael Pereira as Sgt. McKenny
Casey Sill as Corporal Pesce
Zach Hardin as SS Officer


Watch-Free-HD     Download

Details
Name:Wunderland.2018.720p.WEBRip.x264.AAC.LLG
Description:
******************************Thumbnail:**********************

 

******************************Screenshots:********************

 Screenshot 1

 Screenshot 2

 Screenshot 3

 Screenshot 4

 Screenshot 5

 Screenshot 6

 Screenshot 7

 Screenshot 8

 Screenshot 9

 Screenshot 0

**************************************************************

Complete name                            : Wunderland.2018.720p.WEBRip.x264.AAC.LLG.mp4
Format                                   : MPEG-4
Format profile                           : Base Media
Codec ID                                 : isom (isom/iso2/avc1/mp41)
File size                                : 606 MiB
Duration                                 : 1 h 25 min
Overall bit rate mode                    : Variable
Overall bit rate                         : 996 kb/s
Writing application                      : Lavf57.56.101

Video
ID                                       : 1
Format                                   : AVC
Format/Info                              : Advanced Video Codec
Format profile                           : [email protected]
Format settings                          : CABAC / 4 Ref Frames
Format settings, CABAC                   : Yes
Format settings, RefFrames               : 4 frames
Codec ID                                 : avc1
Codec ID/Info                            : Advanced Video Coding
Duration                                 : 1 h 25 min
Bit rate                                 : 900 kb/s
Width                                    : 1 280 pixels
Height                                   : 538 pixels
Display aspect ratio                     : 2.40:1
Original display aspect ratio            : 2.40:1
Frame rate mode                          : Constant
Frame rate                               : 24.000 FPS
Color space                              : YUV
Chroma subsampling                       : 4:2:0
Bit depth                                : 8 bits
Scan type                                : Progressive
Bits/(Pixel*Frame)                       : 0.054
Stream size                              : 526 MiB (87%)

Audio
ID                                       : 2
Format                                   : AAC
Format/Info                              : Advanced Audio Codec
Format profile                           : LC
Codec ID                                 : mp4a-40-2
Duration                                 : 1 h 25 min
Bit rate mode                            : Variable
Bit rate                                 : 125 kb/s
Maximum bit rate                         : 128 kb/s
Channel(s)                               : 2 channels
Channel positions                        : Front: L R
Sampling rate                            : 48.0 kHz
Frame rate                               : 46.875 FPS (1024 SPF)
Compression mode                         : Lossy
Stream size                              : 76.3 MiB (13%)
Default                                  : Yes
Alternate group                          : 1

Category:TV > WEB-HD
Lang:English  English
Total Size:619.89 MB
Info Hash:1e15c1cae6c29b4b2c5fb15194d7e6c10a4fb574
Added By:LifeLongg
Date Added:21-02-2018 23:06:14
Downloads:127

Ratings:Not Yet Rated (Log in to rate it)


Tracker:
udp://tracker.openbittorrent.com:80/announce


File List: 


Comments

No comments still posted

Top
Copyright 2018 DownloadHD -|- Page Generated In 0.309697 secs.
-|- RSS Feed -|- Feed Info
Love Yatri | Real Life Men And Women Season 2 | 821 مسلسلات كورية مسلسل Khun Mae Suam Roy الحلقة 3 الثالثة مترجمة مشاهدة مسلسل Khun Mae Suam Roy الحلقة 3 الثالثة مترجمة تحميل مسلسل Khun Mae Suam Roy الحلقة 3 الثالثة مترجمة