Login
Username:
Password:
[Signup]
[Recover Account]


Browse Torrents

Poll


You must be logged in to view polls



Latest Torrents
The.Voice.S15E24.W...
- [Size: 602.93 MB]

The.Voice.S15E24.7...
- [Size: 824.34 MB]

The.Voice.S15E24.W...
- [Size: 600.73 MB]

James.Corden.2018....
- [Size: 629.37 MB]

James.Corden.2018....
- [Size: 627.24 MB]


Torrent Details For "The Summoning 2017 1080p WEBRip x264 AAC"

The Summoning 2017 1080p WEBRip x264 AAC

Download this torrent | Magnet Download
Health:
Seeds: 0
Leechers: 17
Completed:
Last Checked: 30-08-2018 03:58:43
External Torrent
Update Stats



Images Host

Poster
No poster


Watch-Free-HD     Download

Details
Name:The Summoning 2017 1080p WEBRip x264 AAC
Description:



General
Format                      : Matroska
Format version              : Version 4 / Version 2
File size                   : 1 010 MiB
Duration                    : 1 h 27 min
Overall bit rate            : 1 609 kb/s

Video
ID                          : 1
Format                      : AVC
Format/Info                 : Advanced Video Codec
Format profile              : [email protected]
Format settings             : CABAC / 4 Ref Frames
Format settings, CABAC      : Yes
Format settings, ReFrames   : 4 frames
Codec ID                    : V_MPEG4/ISO/AVC
Duration                    : 1 h 27 min
Bit rate                    : 1 500 kb/s
Width                       : 1 920 pixels
Height                      : 802 pixels
Display aspect ratio        : 2.40:1
Frame rate mode             : Constant
Frame rate                  : 23.976 (24000/1001) FPS
Color space                 : YUV
Chroma subsampling          : 4:2:0
Bit depth                   : 8 bits
Scan type                   : Progressive
Bits/(Pixel*Frame)          : 0.041
Stream size                 : 928 MiB (92%)
Writing library             : x264 core 148 r2708 86b7198
Default                     : Yes
Forced                      : No

Audio
ID                          : 2
Format                      : AAC
Format/Info                 : Advanced Audio Codec
Format profile              : LC
Codec ID                    : A_AAC-2
Duration                    : 1 h 27 min
Bit rate                    : 128 kb/s
Channel(s)                  : 2 channels
Channel positions           : Front: L R
Sampling rate               : 44.1 kHz
Frame rate                  : 43.066 FPS (1024 SPF)
Compression mode            : Lossy
Stream size                 : 80.3 MiB (8%)
Language                    : English
Default                     : Yes
Forced                      : No

Menu
00:00:00.054                : en:00:00:00.054



 
 
 
 
 
 

Category:Movies > HDRips
Lang:English  English
Total Size:1,009.89 MB
Info Hash:3d3f524b3d0d1fcb883c776d37cb064612c593a5
Added By:Freaky
Date Added:19-02-2018 17:46:07
Downloads:35

Ratings:Not Yet Rated (Log in to rate it)


Tracker:
udp://tracker.pirateparty.gr:6969/announce

This Torrent also has backup trackers
URLSeedersLeechersCompleted
http://tracker.opentrackr.org/announce000
http://tracker.vanitycore.co:6969/announce020
http://public.popcorn-tracker.org:6969/announce020


File List: 


Comments

No comments still posted

Top
Copyright 2018 DownloadHD -|- Page Generated In 3.991409 secs.
-|- RSS Feed -|- Feed Info
Kirstie's Handmade Christmas | Seven in Heaven (2018) | Jurassic World: Fallen Kingdom