Login
Username:
Password:
[Signup]
[Recover Account]


Browse Torrents

Poll


You must be logged in to view polls



Latest Torrents
Tigers (2018) Hind...
- [Size: 698.80 MB]

Real.Country.S01E0...
- [Size: 579.76 MB]

Padmaavat.2018 72...
- [Size: 2.99 GB]

TMZ.on.TV.2018.11....
- [Size: 160.78 MB]

New.Amsterdam.2018...
- [Size: 217.38 MB]


Torrent Details For "Porus (60 Episodes ) Untouched WEBHD 1080p Team Jio"

Porus (60 Episodes ) Untouched WEBHD 1080p Team Jio

Download this torrent | Magnet Download
Health:
Seeds: 0
Leechers: 13
Completed:
Last Checked: 04-08-2018 14:48:50
External Torrent
Update Stats



Images Host

Poster


Watch-Free-HD     Download

Details
Name:Porus (60 Episodes ) Untouched WEBHD 1080p Team Jio
Description:




Quote:

Format                                   : MPEG-4
Format profile                           : Base Media
Codec ID                                 : isom (isom/iso2/avc1/mp41)
File size                                : 427 MiB
Duration                                 : 32 min 12 s
Overall bit rate                         : 1 852 kb/s
Writing application                      : Lavf56.23.105

Video
ID                                       : 1
Format                                   : AVC
Format/Info                              : Advanced Video Codec
Format profile                           : [email protected]
Format settings                          : CABAC / 3 Ref Frames
Format settings, CABAC                   : Yes
Format settings, RefFrames               : 3 frames
Codec ID                                 : avc1
Codec ID/Info                            : Advanced Video Coding
Duration                                 : 32 min 12 s
Bit rate                                 : 1 720 kb/s
Width                                    : 1 920 pixels
Height                                   : 1 080 pixels
Display aspect ratio                     : 16:9
Frame rate mode                          : Constant
Frame rate                               : 25.000 FPS
Color space                              : YUV
Chroma subsampling                       : 4:2:0
Bit depth                                : 8 bits
Scan type                                : Progressive
Bits/(Pixel*Frame)                       : 0.033
Stream size                              : 396 MiB (93%)
Color range                              : Limited
Color primaries                          : BT.709
Transfer characteristics                 : BT.709
Matrix coefficients                      : BT.709

Audio
ID                                       : 2
Format                                   : AAC
Format/Info                              : Advanced Audio Codec
Format profile                           : LC
Codec ID                                 : mp4a-40-2
Duration                                 : 32 min 12 s
Bit rate mode                            : Constant
Bit rate                                 : 126 kb/s
Channel(s)                               : 2 channels
Channel positions                        : Front: L R
Sampling rate                            : 44.1 kHz
Frame rate                               : 43.066 FPS (1024 SPF)
Compression mode                         : Lossy
Stream size                              : 28.9 MiB (7%)
Default                                  : Yes
Alternate group                          : 1

 
 
 
 
 
 
Category:TV > Indian
Lang:Hindi
Total Size:16.92 GB
Info Hash:e509188ac436a7014f2dd787449404727b427b78
Added By:TeamJio
Date Added:19-02-2018 16:38:20
Downloads:389

Ratings:Not Yet Rated (Log in to rate it)


Tracker:
udp://tracker.coppersurfer.tk:6969/announce


File List: 


Comments

<< Previous      Next >>
1 - 2

[Report] Posted: 22-02-2018 at 19:24:44
Shahmaster



Awesome

Thanks


Please upload more episodes.

[Report] Posted: 29-09-2018 at 16:00:12
metrorest



Request,
Upload Porus Also @ 720p Complete or 1080p
 http://www.sonyliv.com/listin...template%3Dlandscape
Thankyou

1 - 2
<< Previous      Next >>


Top
Copyright 2018 DownloadHD -|- Page Generated In 0.802798 secs.
-|- RSS Feed -|- Feed Info
Fiat 500 Ferrari Dealer Edition numéroté 11/200 | The Perfect Mother | Marty Berger