Login
Username:
Password:
[Signup]
[Recover Account]


Browse Torrents

Poll


You must be logged in to view polls



Latest Torrents
James.Corden.2018....
- [Size: 627.02 MB]

Stephen.Colbert.20...
- [Size: 649.06 MB]

The.Domestics.2018...
- [Size: 705.94 MB]

Tell.Me.A.Story.US...
- [Size: 243.05 MB]

Neelakasham Pachak...
- [Size: 1.48 GB]


Torrent Details For "18+.Sleeping.Beauties.2017.720p.HDRip.x264.AAC.LLG"

18+.Sleeping.Beauties.2017.720p.HDRip.x264.AAC.LLG

Download this torrent | Magnet Download
Health:
Seeds: 0
Leechers: 12
Completed:
Last Checked: 18-02-2018 19:45:34
External Torrent
Update Stats



Images Host

Poster
No poster


iMDB
Imdb Picture Title: Sleeping Beauties
Year: 2017
Runtime: 81 minutes
Language: English
Country: USA
All Genres: Comedy
Plot Outline: Awakened from a curse, Sleeping Beauty marvels at the wonders of the new century. She falls in love with a famous architect who is working to restore the castle she once lived in, but finds...
Director: Dean McKendrick

Produced By: Alan B. Bursteen,
Plot:

Awakened from a curse, Sleeping Beauty marvels at the wonders of the new century. She falls in love with a famous architect who is working to restore the castle she once lived in, but finds there are enemies plotting against her. Giving in to her long pent-up sexual desires, Beauty cannot resist the lustful advances of both men and women and after 400 years.

- Written by lehnsherr
Cast:
Pristine Edge as
Andrew Espinoza Long as
William F. Bryant as
Aria Alexander as
Sarah Hunter as


Watch-Free-HD     Download

Details
Name:18+.Sleeping.Beauties.2017.720p.HDRip.x264.AAC.LLG
Description:
******************************Thumbnail:**********************

 

******************************Screenshots:********************

 Screenshot 1

 Screenshot 2

 Screenshot 3

 Screenshot 4

 Screenshot 5

 Screenshot 6

 Screenshot 7

 Screenshot 8

 Screenshot 9

 Screenshot 0

**************************************************************

Complete name                            : 18+.Sleeping.Beauties.2017.720p.HDRip.x264.AAC.LLG.mp4
Format                                   : MPEG-4
Format profile                           : Base Media
Codec ID                                 : isom (isom/iso2/avc1/mp41)
File size                                : 557 MiB
Duration                                 : 1 h 21 min
Overall bit rate                         : 956 kb/s
Writing application                      : Lavf57.56.101

Video
ID                                       : 1
Format                                   : AVC
Format/Info                              : Advanced Video Codec
Format profile                           : [email protected]
Format settings                          : CABAC / 4 Ref Frames
Format settings, CABAC                   : Yes
Format settings, RefFrames               : 4 frames
Codec ID                                 : avc1
Codec ID/Info                            : Advanced Video Coding
Duration                                 : 1 h 21 min
Bit rate                                 : 900 kb/s
Width                                    : 1 280 pixels
Height                                   : 720 pixels
Display aspect ratio                     : 16:9
Frame rate mode                          : Constant
Frame rate                               : 23.976 (23976/1000) FPS
Color space                              : YUV
Chroma subsampling                       : 4:2:0
Bit depth                                : 8 bits
Scan type                                : Progressive
Bits/(Pixel*Frame)                       : 0.041
Stream size                              : 515 MiB (93%)

Audio
ID                                       : 2
Format                                   : AAC
Format/Info                              : Advanced Audio Codec
Format profile                           : LC
Codec ID                                 : mp4a-40-2
Duration                                 : 1 h 21 min
Bit rate mode                            : Constant
Bit rate                                 : 64.5 kb/s
Channel(s)                               : 2 channels
Channel positions                        : Front: L R
Sampling rate                            : 48.0 kHz
Frame rate                               : 46.875 FPS (1024 SPF)
Compression mode                         : Lossy
Stream size                              : 37.6 MiB (7%)
Default                                  : Yes
Alternate group                          : 1

Category:Movies > HDRips
Lang:English  English
Total Size:571.54 MB
Info Hash:db64041e00ea9ca8710c1ea7a63475c7748d2dcf
Added By:LifeLongg
Date Added:18-02-2018 19:35:48
Downloads:233

Ratings:Not Yet Rated (Log in to rate it)


Tracker:
udp://tracker.openbittorrent.com:80/announce


File List: 


Comments

No comments still posted

Top
Copyright 2018 DownloadHD -|- Page Generated In 0.318364 secs.
-|- RSS Feed -|- Feed Info
Facebook | Download | Niki de Saint Phalle - Der Traum einer Architektin