Login
Username:
Password:
[Signup]
[Recover Account]


Browse Torrents

Poll


You must be logged in to view polls



Latest Torrents
Bumblebee 2018.NEW...
- [Size: 1.35 GB]

Seth.Meyers.2018.1...
- [Size: 582.88 MB]

Seth.Meyers.2018.1...
- [Size: 586.13 MB]

Seth.Meyers.2018.1...
- [Size: 801.04 MB]

18+.What.Keeps.You...
- [Size: 1.10 GB]


Torrent Details For "Pitch.Perfect.3.2017.720p.HC.HDRip.X264.AC3.LLG"

Pitch.Perfect.3.2017.720p.HC.HDRip.X264.AC3.LLG

Download this torrent | Magnet Download
Health:
Seeds: 0
Leechers: 25
Completed:
Last Checked: 17-02-2018 22:10:53
External Torrent
Update Stats



Images Host

Poster
No poster


iMDB
Imdb Picture Title: Pitch Perfect 3
Year: 2017
Runtime: 93 minutes
Votes: 9981
Rating: 6.3/10
Language: English
Country: USA
All Genres: Comedy, Music
Plot Outline: Following their win at the world championship, the now separated Bellas reunite for one last singing competition at an overseas USO tour, but face a group who uses both instruments and voices.
Tagline: Last Call, Pitches
Director: Trish Sie
Writing By: Kay Cannon,Mike White,Kay Cannon,Mickey Rapkin,
Produced By: Elizabeth Banks,Paul Brooks,Kay Cannon,Max Handelman,Jason Moore,David Nicksay,Scott Niemeyer,
Music: Christopher Lennertz
Cast:
Anna Kendrick as Beca
Rebel Wilson as Fat Amy
Brittany Snow as Chloe
Anna Camp as Aubrey
Hailee Steinfeld as Emily
Ester Dean as Cynthia Rose
Hana Mae Lee as Lilly
Kelley Jakle as Jessica
Shelley Regner as Ashley
Chrissie Fit as Flo
Trailers:
Official Trailer #2
Teaser Trailer


Watch-Free-HD     Download

Details
Name:Pitch.Perfect.3.2017.720p.HC.HDRip.X264.AC3.LLG
Description:
******************************Thumbnail:**********************

 

******************************Screenshots:********************

 Screenshot 1

 Screenshot 2

 Screenshot 3

 Screenshot 4

 Screenshot 5

 Screenshot 6

 Screenshot 7

 Screenshot 8

 Screenshot 9

 Screenshot 0

**************************************************************

Complete name                            : Pitch.Perfect.3.2017.720p.HC.HDRip.X264.AC3.LLG.mp4
Format                                   : MPEG-4
Format profile                           : Base Media
Codec ID                                 : isom (isom/iso2/avc1/mp41)
File size                                : 868 MiB
Duration                                 : 1 h 32 min
Overall bit rate                         : 1 317 kb/s
Writing application                      : Lavf57.56.101

Video
ID                                       : 1
Format                                   : AVC
Format/Info                              : Advanced Video Codec
Format profile                           : [email protected]
Format settings                          : CABAC / 4 Ref Frames
Format settings, CABAC                   : Yes
Format settings, RefFrames               : 4 frames
Codec ID                                 : avc1
Codec ID/Info                            : Advanced Video Coding
Duration                                 : 1 h 32 min
Bit rate                                 : 1 200 kb/s
Width                                    : 1 280 pixels
Height                                   : 688 pixels
Display aspect ratio                     : 1.85:1
Frame rate mode                          : Constant
Frame rate                               : 25.000 FPS
Color space                              : YUV
Chroma subsampling                       : 4:2:0
Bit depth                                : 8 bits
Scan type                                : Progressive
Bits/(Pixel*Frame)                       : 0.055
Stream size                              : 781 MiB (90%)

Audio
ID                                       : 2
Format                                   : AC-3
Format/Info                              : Audio Coding 3
Codec ID                                 : ac-3
Duration                                 : 1 h 32 min
Bit rate mode                            : Constant
Bit rate                                 : 128 kb/s
Channel(s)                               : 2 channels
Channel positions                        : Front: L R
Sampling rate                            : 48.0 kHz
Frame rate                               : 31.250 FPS (1536 SPF)
Bit depth                                : 16 bits
Compression mode                         : Lossy
Stream size                              : 84.4 MiB (10%)
Language                                 : English
Service kind                             : Complete Main
Default                                  : Yes
Alternate group                          : 1

Category:Movies > HDRips
Lang:English  English
Total Size:883.12 MB
Info Hash:b11e1fc8084d03c22e7d881cc41eedf7542788b8
Added By:LifeLongg
Date Added:17-02-2018 20:55:19
Downloads:58

Ratings:Not Yet Rated (Log in to rate it)


Tracker:
udp://tracker.openbittorrent.com:80/announce


File List: 


Comments

No comments still posted

Top
Copyright 2018 DownloadHD -|- Page Generated In 0.088247 secs.
-|- RSS Feed -|- Feed Info
1x95 Dragon Ball Super | TNT (Turner Network Television) presents the best films of the cinema classic, the Hollywood's most successful and best series. | WarforthePlanetoftheApesDL_ES.srt