Login
Username:
Password:
[Signup]
[Recover Account]


Browse Torrents

Poll


You must be logged in to view polls



Latest Torrents
Nightshift.2018.HD...
- [Size: 706.57 MB]

Jimmy.Fallon.2018....
- [Size: 579.69 MB]

Jimmy.Fallon.2018....
- [Size: 582.40 MB]

The.Voice.S15E25.X...
- [Size: 1.51 GB]

The.Voice.S15E25.W...
- [Size: 1.17 GB]


Torrent Details For "Battle.of.the.Sexes.2017.HDRip.XviD.AC3.LLG"

Battle.of.the.Sexes.2017.HDRip.XviD.AC3.LLG

Download this torrent | Magnet Download
Health:
Seeds: 3
Leechers: 0
Completed: 12,908 
Last Checked: 16-12-2018 19:16:08
External Torrent
Update Stats



Images Host

Poster
No poster


iMDB
Imdb Picture Title: Battle of the Sexes
Year: 2017
Runtime: 121 minutes
Votes: 8950
Rating: 6.9/10
Language: English
Country: UK, USA
All Genres: Biography, Comedy, Drama, Sport
Plot Outline: The true story of the 1973 tennis match between World number one Billie Jean King and ex-champ and serial hustler Bobby Riggs.
Tagline: He made a bet. She made history.
Director: Jonathan Dayton
Valerie Faris
Writing By: Simon Beaufoy,
Produced By: Danny Boyle,Christian Colson,Karen Ruth Getchell,Robert Graf,Jeffrey Harlacker,Thomas Patrick Smith,
Music: Nicholas Britell
Cast:
Emma Stone as Billie Jean King
Steve Carell as Bobby Riggs
Andrea Riseborough as Marilyn Barnett
Natalie Morales as Rosie Casals
Sarah Silverman as Gladys Heldman
Bill Pullman as Jack Kramer
Alan Cumming as Cuthbert 'Ted' Tinling
Elisabeth Shue as Priscilla Riggs
Eric Christian Olsen as Lornie Kuhle
Fred Armisen as Rheo Blair
Trailers:
New Trailer
Trailer #1


Watch-Free-HD     Download

Details
Name:Battle.of.the.Sexes.2017.HDRip.XviD.AC3.LLG
Description:
******************************Thumbnail:**********************

 

******************************Screenshots:********************

 Screenshot 1

 Screenshot 2

 Screenshot 3

 Screenshot 4

 Screenshot 5

 Screenshot 6

 Screenshot 7

 Screenshot 8

 Screenshot 9

 Screenshot 0

Complete name                            : Battle.of.the.Sexes.2017.HDRip.XviD.AC3.LLG.mp4
Format                                   : MPEG-4
Format profile                           : Base Media
Codec ID                                 : isom (isom/iso2/avc1/mp41)
File size                                : 1.24 GiB
Duration                                 : 2 h 1 min
Overall bit rate                         : 1 455 kb/s
Writing application                      : Lavf57.56.101
Copyright                                : robbyrs-iCN

Video
ID                                       : 1
Format                                   : AVC
Format/Info                              : Advanced Video Codec
Format profile                           : [email protected]
Format settings                          : CABAC / 4 Ref Frames
Format settings, CABAC                   : Yes
Format settings, RefFrames               : 4 frames
Codec ID                                 : avc1
Codec ID/Info                            : Advanced Video Coding
Duration                                 : 2 h 1 min
Bit rate                                 : 1 200 kb/s
Width                                    : 720 pixels
Height                                   : 304 pixels
Display aspect ratio                     : 2.40:1
Original display aspect ratio            : 2.40:1
Frame rate mode                          : Constant
Frame rate                               : 23.976 (23976/1000) FPS
Color space                              : YUV
Chroma subsampling                       : 4:2:0
Bit depth                                : 8 bits
Scan type                                : Progressive
Bits/(Pixel*Frame)                       : 0.229
Stream size                              : 1.01 GiB (82%)


Audio
ID                                       : 2
Format                                   : AC-3
Format/Info                              : Audio Coding 3
Codec ID                                 : ac-3
Duration                                 : 2 h 1 min
Bit rate mode                            : Constant
Bit rate                                 : 256 kb/s
Channel(s)                               : 6 channels
Channel positions                        : Front: L C R, Side: L R, LFE
Sampling rate                            : 48.0 kHz
Frame rate                               : 31.250 FPS (1536 SPF)
Bit depth                                : 16 bits
Compression mode                         : Lossy
Stream size                              : 223 MiB (18%)
Title                                    : eng Ac3 5.1
Language                                 : English
Service kind                             : Complete Main
Category:Movies > HDRips
Lang:English  English
Total Size:1.26 GB
Info Hash:3fdbcb80bb3a095a34c5f593489b3b426bfa2ca3
Added By:LifeLongg
Date Added:16-02-2018 19:22:51
Downloads:358

Ratings:Not Yet Rated (Log in to rate it)


Tracker:
udp://tracker.openbittorrent.com:80/announce


File List: 


Comments

No comments still posted

Top
Copyright 2018 DownloadHD -|- Page Generated In 0.375227 secs.
-|- RSS Feed -|- Feed Info
cachumba | Legnzettebb | DRAMAtical Murder