Login
Username:
Password:
[Signup]
[Recover Account]


Browse Torrents

Poll


You must be logged in to view polls



Latest Torrents
18+ DAD FRIEND (20...
- [Size: 579.60 MB]

Rita Ora - Phoenix...
- [Size: 129.09 MB]

Batti Gul Meter Ch...
- [Size: 1.54 GB]

James.Corden.2018....
- [Size: 627.02 MB]

Stephen.Colbert.20...
- [Size: 649.06 MB]


Torrent Details For "Coco.2017.720p.BluRay.X264.LLG"

Coco.2017.720p.BluRay.X264.LLG

Download this torrent | Magnet Download
Health:
Seeds: 0
Leechers: 7
Completed:
Last Checked: 15-02-2018 20:01:43
External Torrent
Update Stats



Images Host

Poster
No poster


iMDB
Imdb Picture Title: Coco
Year: 2017
Runtime: 109 minutes
Votes: 14217
Rating: 9.0/10
Language: English, Spanish
Country: USA
All Genres: Animation, Adventure, Comedy, Family, Fantasy, Musical, Mystery
Plot Outline: Aspiring musician Miguel, confronted with his family's ancestral ban on music, enters the Land of the Dead to work out the mystery.
Director: Lee Unkrich
Adrian Molina
Writing By: Lee Unkrich,Jason Katz,Matthew Aldrich,Adrian Molina,Adrian Molina,Matthew Aldrich,
Produced By: Darla K. Anderson,Mary Alice Drumm,John Lasseter,
Music: Michael Giacchino
Cast:
Anthony Gonzalez as Miguel
Gael GarcĂ­a Bernal as HĂ©ctor
Benjamin Bratt as Ernesto de la Cruz
Alanna Ubach as Mamá Imelda
Renee Victor as Abuelita
Jaime Camil as Papá
Alfonso Arau as Papá Julio
Herbert Siguenza as TĂ­o Oscar / TĂ­o Felipe
Gabriel Iglesias as Clerk
Lombardo Boyar as Plaza Mariachi / Gustavo
Trailers:
Official U.S. Trailer
"Find Your Voice"
Theatrical Trailer
Teaser Trailer


Watch-Free-HD     Download

Details
Name:Coco.2017.720p.BluRay.X264.LLG
Description:
******************************Thumbnail:**********************

 

******************************Screenshots:********************

 Screenshot 1

 Screenshot 2

 Screenshot 3

 Screenshot 4

 Screenshot 5

 Screenshot 6

 Screenshot 7

 Screenshot 8

 Screenshot 9

 Screenshot 0

**************************************************************

Complete name                            : Coco.2017.720p.BluRay.X264.LLG.mp4
Format                                   : MPEG-4
Format profile                           : Base Media
Codec ID                                 : isom (isom/iso2/avc1/mp41)
File size                                : 1.57 GiB
Duration                                 : 1 h 45 min
Overall bit rate                         : 2 137 kb/s
Writing application                      : Lavf57.56.101

Video
ID                                       : 1
Format                                   : AVC
Format/Info                              : Advanced Video Codec
Format profile                           : [email protected]
Format settings                          : CABAC / 4 Ref Frames
Format settings, CABAC                   : Yes
Format settings, RefFrames               : 4 frames
Codec ID                                 : avc1
Codec ID/Info                            : Advanced Video Coding
Duration                                 : 1 h 45 min
Bit rate                                 : 1 500 kb/s
Width                                    : 1 280 pixels
Height                                   : 536 pixels
Display aspect ratio                     : 2.40:1
Frame rate mode                          : Constant
Frame rate                               : 23.976 (23976/1000) FPS
Color space                              : YUV
Chroma subsampling                       : 4:2:0
Bit depth                                : 8 bits
Scan type                                : Progressive
Bits/(Pixel*Frame)                       : 0.091
Stream size                              : 1.09 GiB (70%)

Audio
ID                                       : 2
Format                                   : AC-3
Format/Info                              : Audio Coding 3
Codec ID                                 : ac-3
Duration                                 : 1 h 45 min
Bit rate mode                            : Constant
Bit rate                                 : 640 kb/s
Channel(s)                               : 6 channels
Channel positions                        : Front: L C R, Side: L R, LFE
Sampling rate                            : 48.0 kHz
Frame rate                               : 31.250 FPS (1536 SPF)
Bit depth                                : 16 bits
Compression mode                         : Lossy
Stream size                              : 481 MiB (30%)
Language                                 : English
Service kind                             : Complete Main
Default                                  : Yes
Alternate group                          : 1

Category:Movies > 720P Bluray
Lang:English  English
Total Size:1.59 GB
Info Hash:a4388b893d5769e1964854c1771fb4f1cb71e614
Added By:LifeLongg
Date Added:15-02-2018 17:33:09
Downloads:58

Ratings:Not Yet Rated (Log in to rate it)


Tracker:
udp://tracker.openbittorrent.com:80/announce


File List: 


Comments

No comments still posted

Top
Copyright 2018 DownloadHD -|- Page Generated In 0.310195 secs.
-|- RSS Feed -|- Feed Info
BIOGRAPHY MOVIES | Hamid Bouchnak 2019 | People Just Do Nothing Season 5 Episode 2 s05e02