Login
Username:
Password:
[Signup]
[Recover Account]


Browse Torrents

Poll


You must be logged in to view polls



Latest Torrents
Blood.UK.S01E01E02...
- [Size: 387.18 MB]

Hero No Zero 3 (Ma...
- [Size: 638.09 MB]

Chalbaaz (2018) Sa...
- [Size: 699.80 MB]

Bodhon [2017] Beng...
- [Size: 583.86 MB]

Munni Metric Pass ...
- [Size: 591.77 MB]


Torrent Details For "Dreamscape 1984 REMASTERED 1080p BRRip x264 AAC - Download"

Dreamscape 1984 REMASTERED 1080p BRRip x264 AAC - Download

Download this torrent | Magnet Download
Health:
Seeds: 0
Leechers: 18
Completed: 10 
Last Checked: 18-05-2018 23:38:40
External Torrent
Update Stats



Images Host

Poster


iMDB
Imdb Picture Title: Dreamscape
Year: 1984
Runtime: 99 minutes
Votes: 11587
Rating: 6.3/10
Language: English
Country: USA
All Genres: Action, Adventure, Horror, Sci-Fi, Thriller
Plot Outline: A young psychic on the run from himself is recruited by a government agency experimenting with the use of the dream-sharing technology and is given the inverse task of planting an idea into the mind of the U.S. president.
Tagline: Alex Gardner has an extraordinary gift. To keep it may cost him his life...
Director: Joseph Ruben
Writing By: David Loughery,David Loughery,Chuck Russell,Joseph Ruben,
Produced By: Bruce Cohn Curtis,Tom Curtis,Chuck Russell,Jerry Tokofsky,Stanley R. Zupnik,
Music: Maurice Jarre
Cast:
Dennis Quaid as Alex Gardner
Max von Sydow as Doctor Paul Novotny
Christopher Plummer as Bob Blair
Eddie Albert as The President
Kate Capshaw as Jane DeVries
David Patrick Kelly as Tommy Ray Glatman
George Wendt as Charlie Prince
Larry Gelman as Mr. Webber
Cory 'Bumper' Yothers as Buddy
Redmond Gleeson as Snead


Watch-Free-HD     Download

Details
Name:Dreamscape 1984 REMASTERED 1080p BRRip x264 AAC - Download
Description:
Dreamscape 1984 REMASTERED 1080p BRRip x264 AAC - Download

Source:Scene
Format                      : Matroska
Format version              : Version 4 / Version 2
File size                   : 1.95 GiB
Duration                    : 1 h 39 min
Overall bit rate            : 2 822 kb/s
Movie name                  : Dreamscape 1984 - Download


Video
ID                          : 1
Format                      : AVC
Format/Info                 : Advanced Video Codec
Format profile              : [email protected]
Format settings, CABAC      : Yes
Format settings, RefFrames  : 4 frames
Codec ID                    : V_MPEG4/ISO/AVC
Duration                    : 1 h 39 min
Bit rate                    : 2 500 kb/s
Width                       : 1 920 pixels
Height                      : 1 040 pixels
Display aspect ratio        : 1.85:1
Frame rate mode             : Constant
Frame rate                  : 23.976 (24000/1001) FPS
Language                    : English
Default                     : Yes
Forced                      : No
Color range                 : Limited
Color primaries             : BT.709
Transfer characteristics    : BT.709
Matrix coefficients         : BT.709

Audio
ID                          : 2
Format                      : AAC
Format/Info                 : Advanced Audio Codec
Format profile              : LC
Codec ID                    : A_AAC
Duration                    : 1 h 39 min
Bit rate                    : 320 kb/s
Channel(s)                  : 6 channels
Channel positions           : Front: L C R, Side: L R, LFE
Sampling rate               : 48.0 kHz
Frame rate                  : 46.875 FPS (1024 SPF)
Compression mode            : Lossy
Delay relative to video     : 9 ms
Stream size                 : 226 MiB (11%)
Language                    : English
Default                     : Yes
Forced                      : No

Text #1
ID                          : 3
Format                      : UTF-8
Codec ID                    : S_TEXT/UTF8
Codec ID/Info               : UTF-8 Plain Text
Duration                    : 1 h 32 min
Bit rate                    : 55 b/s
Count of elements           : 1327
Stream size                 : 37.7 KiB (0%)
Language                    : English
Default                     : No
Forced                      : No

Text #2
ID                          : 4
Format                      : UTF-8
Codec ID                    : S_TEXT/UTF8
Codec ID/Info               : UTF-8 Plain Text
Duration                    : 1 h 34 min
Bit rate                    : 57 b/s
Count of elements           : 1452
Stream size                 : 39.4 KiB (0%)
Title                       : SDH
Language                    : English
Default                     : No
Forced                      : No

Menu
00:00:00.000                : en:00:00:00.000
00:01:52.612                : en:00:01:52.612
00:06:55.957                : en:00:06:55.957
00:15:43.776                : en:00:15:43.776
00:24:22.961                : en:00:24:22.961
00:35:18.533                : en:00:35:18.533
00:45:47.787                : en:00:45:47.787
00:55:08.889                : en:00:55:08.889
01:01:37.903                : en:01:01:37.903
01:14:51.612                : en:01:14:51.612
01:22:07.131                : en:01:22:07.131
01:30:47.025                : en:01:30:47.025

           
Category:Movies > 1080P Bluray
Lang:English  English
Total Size:1.95 GB
Info Hash:9454b953d4dabf5f38e149c84a13ef5129ee6232
Added By:Download
Date Added:12-02-2018 18:52:31
Downloads:94

Ratings:Not Yet Rated (Log in to rate it)


Tracker:
udp://tracker.coppersurfer.tk:6969/announce


File List: 


Comments

No comments still posted

Top
Copyright 2018 DownloadHD -|- Page Generated In 0.429067 secs.
-|- RSS Feed -|- Feed Info
400 Days (2015) 720p BRRip 800MB | Sony Playstation 4 + 4 Spiele | To Kill a Mockingbird