Login
Username:
Password:
[Signup]
[Recover Account]


Browse Torrents

Poll


You must be logged in to view polls



Latest Torrents
18+ DAD FRIEND (20...
- [Size: 579.60 MB]

Rita Ora - Phoenix...
- [Size: 129.09 MB]

Batti Gul Meter Ch...
- [Size: 1.54 GB]

James.Corden.2018....
- [Size: 627.02 MB]

Stephen.Colbert.20...
- [Size: 649.06 MB]


Torrent Details For "The The Da Vinci Code 2006 [ExtCut] 1080p BRRip x264 Dual Audio Hin+Eng 5.1 Esub Skyler"

The The Da Vinci Code 2006 [ExtCut] 1080p BRRip x264 Dual Audio Hin+Eng 5.1 Esub Skyler

Download this torrent | Magnet Download
Health:
Seeds: 0
Leechers: 6
Completed:
Last Checked: 22-08-2018 08:03:03
External Torrent
Update Stats



Images Host

Poster


iMDB
Imdb Picture Title: The Da Vinci Code
Year: 2006
Runtime: 149 minutes
Votes: 351255
Rating: 6.6/10
Language: English, French, Latin, Spanish
Country: USA, Malta, France, UK
All Genres: Mystery, Thriller
Plot Outline: A murder inside the Louvre, and clues in Da Vinci paintings, lead to the discovery of a religious mystery protected by a secret society for two thousand years, which could shake the foundations of Christianity.
Tagline: Uncover The Secret
Director: Ron Howard
Writing By: Akiva Goldsman,Dan Brown,
Produced By: Dan Brown,John Calley,Brian Grazer,Todd Hallowell,Ron Howard,Kathleen McGill,Louisa Velis,
Music: Hans Zimmer
Cast:
Tom Hanks as Robert Langdon
Audrey Tautou as Sophie Neveu
Ian McKellen as Sir Leigh Teabing
Jean Reno as Captain Bezu Fache
Paul Bettany as Silas
Alfred Molina as Bishop Manuel Aringarosa
Jürgen Prochnow as Andre Vernet
Jean-Yves Berteloot as Remy Jean
Etienne Chicot as Lt. Collet
Jean-Pierre Marielle as Jacques Saunière
Trailers:
The Da Vinci Code
The Da Vinci Code
The Da Vinci Code: Two-Disc Extended Cut
The Da Vinci Code


Watch-Free-HD     Download

Details
Name:The The Da Vinci Code 2006 [ExtCut] 1080p BRRip x264 Dual Audio Hin+Eng 5.1 Esub Skyler
Description:





The The Da Vinci Code 2006 [ExtCut] 1080p BRRip x264 Dual Audio Hin+Eng 5.1 Esub Skyler

General
Unique ID                                : 298408490150619842510706309335775270174 (0xE07F627AA755D8D380032081B2E5551E)
Complete name                            : P:\001\movie\The The Da Vinci Code 2006 [ExtCut] 1080p BRRip x264 Dual Audio Hin+Eng 5.1 Esub Skyler.mkv
Format                                   : Matroska
Format version                           : Version 4 / Version 2
File size                                : 4.00 GiB
Duration                                 : 2 h 54 min
Overall bit rate                         : 3 281 kb/s
Movie name                               : The The Da Vinci Code 2006 1080p Dual Audio ExtCut Skyler
Encoded date                             : UTC 2018-02-07 11:21:37
Writing application                      : mkvmerge v20.0.0 ('I Am The Sun') 64-bit
Writing library                          : libebml v1.3.5 + libmatroska v1.4.8

Video
ID                                       : 1
Format                                   : AVC
Format/Info                              : Advanced Video Codec
Format profile                           : [email protected]
Format settings                          : CABAC / 7 Ref Frames
Format settings, CABAC                   : Yes
Format settings, RefFrames               : 7 frames
Codec ID                                 : V_MPEG4/ISO/AVC
Duration                                 : 2 h 54 min
Bit rate                                 : 2 000 kb/s
Width                                    : 1 464 pixels
Height                                   : 800 pixels
Display aspect ratio                     : 1.85:1
Frame rate mode                          : Constant
Frame rate                               : 23.976 (24000/1001) FPS
Color space                              : YUV
Chroma subsampling                       : 4:2:0
Bit depth                                : 8 bits
Scan type                                : Progressive
Bits/(Pixel*Frame)                       : 0.071
Stream size                              : 2.44 GiB (61%)
Title                                    : The The Da Vinci Code 2006 ExtCut Skyler

Audio #1
ID                                       : 2
Format                                   : AC-3
Format/Info                              : Audio Coding 3
Codec ID                                 : A_AC3
Duration                                 : 2 h 54 min
Bit rate mode                            : Constant
Bit rate                                 : 640 kb/s
Channel(s)                               : 6 channels
Channel positions                        : Front: L C R, Side: L R, LFE
Sampling rate                            : 48.0 kHz
Frame rate                               : 31.250 FPS (1536 SPF)
Bit depth                                : 16 bits
Compression mode                         : Lossy
Stream size                              : 799 MiB (20%)
Title                                    : 5.1 Skyler Remastered
Language                                 : Hindi
Service kind                             : Complete Main
Default                                  : No
Forced                                   : No

Audio #2
ID                                       : 3
Format                                   : AC-3
Format/Info                              : Audio Coding 3
Codec ID                                 : A_AC3
Duration                                 : 2 h 54 min
Bit rate mode                            : Constant
Bit rate                                 : 448 kb/s
Channel(s)                               : 6 channels
Channel positions                        : Front: L C R, Side: L R, LFE
Sampling rate                            : 48.0 kHz
Frame rate                               : 31.250 FPS (1536 SPF)
Bit depth                                : 16 bits
Compression mode                         : Lossy
Stream size                              : 560 MiB (14%)
Title                                    : 5.1 Skyler Bluray
Language                                 : English
Service kind                             : Complete Main
Default                                  : Yes
Forced                                   : No

Text #1
ID                                       : 5
Format                                   : PGS
Muxing mode                              : zlib
Codec ID                                 : S_HDMV/PGS
Codec ID/Info                            : Picture based subtitle format used on BDs/HD-DVDs
Duration                                 : 2 h 43 min
Bit rate                                 : 25.7 kb/s
Count of elements                        : 3914
Stream size                              : 30.2 MiB (1%)
Title                                    : Skyler
Language                                 : English
Default                                  : No
Forced                                   : No



















Category:Movies > Hollywood Dub
Lang:Hindi
Total Size:3.81 GB
Info Hash:8d5877535775d5409616ec2f4c8d85d5f20abff9
Added By:Skyler
Date Added:07-02-2018 12:39:13
Downloads:353

Ratings:Not Yet Rated (Log in to rate it)


Tracker:
udp://inferno.demonoid.pw:3391/announce


File List: 


Comments

No comments still posted

Top
Copyright 2018 DownloadHD -|- Page Generated In 1.862743 secs.
-|- RSS Feed -|- Feed Info
Watch now! | مواهب | Phim Lẻ Mới