Login
Username:
Password:
[Signup]
[Recover Account]


Browse Torrents

Poll


You must be logged in to view polls



Latest Torrents
Murphy.Brown.S11E1...
- [Size: 110.22 MB]

Live.PD.Police.Pat...
- [Size: 276.03 MB]

Nightflyers.S01E10...
- [Size: 1.45 GB]

Nightflyers.S01E10...
- [Size: 760.77 MB]

Nightflyers.S01E10...
- [Size: 744.79 MB]


Torrent Details For "Baaghi A Rebel for Love (1990) Untouched WEB-Dl Team Jio"

Baaghi A Rebel for Love (1990) Untouched WEB-Dl Team Jio

Download this torrent | Magnet Download
Health:
Seeds: 0
Leechers: 5
Completed:
Last Checked: 11-07-2018 05:40:27
External Torrent
Update Stats



Images Host

Poster


Watch-Free-HD     Download

Details
Name:Baaghi A Rebel for Love (1990) Untouched WEB-Dl Team Jio
Description:




Quote:

Format                                   : MPEG-4
Format profile                           : Base Media
Codec ID                                 : isom (isom/iso2/avc1/mp41)
File size                                : 1 003 MiB
Duration                                 : 2 h 33 min
Overall bit rate                         : 914 kb/s
Writing application                      : Lavf54.63.104

Video
ID                                       : 1
Format                                   : AVC
Format/Info                              : Advanced Video Codec
Format profile                           : [email protected]
Format settings                          : 2 Ref Frames
Format settings, CABAC                   : No
Format settings, RefFrames               : 2 frames
Format settings, GOP                     : M=1, N=125
Codec ID                                 : avc1
Codec ID/Info                            : Advanced Video Coding
Duration                                 : 2 h 33 min
Bit rate                                 : 800 kb/s
Width                                    : 640 pixels
Height                                   : 512 pixels
Display aspect ratio                     : 5:4
Frame rate mode                          : Constant
Frame rate                               : 25.000 FPS
Color space                              : YUV
Chroma subsampling                       : 4:2:0
Bit depth                                : 8 bits
Scan type                                : Progressive
Bits/(Pixel*Frame)                       : 0.098
Stream size                              : 878 MiB (88%)
Writing library                          : x264 core 130
Encoding settings                        : cabac=0 / ref=2 / deblock=1:-1:-1 / analyse=0x1:0x131 / me=esa / subme=11 / psy=1 / psy_rd=1.00:0.15 / mixed_ref=1 / me_range=24 / chroma_me=1 / trellis=2 / 8x8dct=0 / cqm=0 / deadzone=21,11 / fast_pskip=1 / chroma_qp_offset=-3 / threads=12 / lookahead_threads=1 / sliced_threads=0 / nr=0 / decimate=1 / interlaced=0 / bluray_compat=0 / constrained_intra=0 / bframes=0 / weightp=0 / keyint=125 / keyint_min=125 / scenecut=0 / intra_refresh=0 / rc_lookahead=60 / rc=2pass / mbtree=1 / bitrate=800 / ratetol=1.0 / qcomp=0.60 / qpmin=0 / qpmax=69 / qpstep=4 / cplxblur=20.0 / qblur=0.5 / ip_ratio=1.40 / aq=1:1.00
Language                                 : English
Tagged date                              : UTC 2014-05-04 21:02:26

Audio
ID                                       : 2
Format                                   : AAC
Format/Info                              : Advanced Audio Codec
Format profile                           : LC
Codec ID                                 : mp4a-40-2
Duration                                 : 2 h 33 min
Duration_LastFrame                       : -16 ms
Bit rate mode                            : Constant
Bit rate                                 : 64.0 kb/s
Channel(s)                               : 2 channels
Channel positions                        : Front: L R
Sampling rate                            : 44.1 kHz
Frame rate                               : 43.066 FPS (1024 SPF)
Compression mode                         : Lossy
Stream size                              : 70.2 MiB (7%)
Language                                 : English
Default                                  : Yes
Alternate group                          : 1
Tagged date                              : UTC 2014-05-04 21:02:26

Other #1
ID                                       : 65536
Type                                     : Hint
Format                                   : RTP
Codec ID                                 : rtp
Duration                                 : 2 h 33 min
Encoded date                             : UTC 2014-05-04 21:02:11
Tagged date                              : UTC 2014-05-04 21:02:26

Other #2
ID                                       : 65537
Type                                     : Hint
Format                                   : RTP
Codec ID                                 : rtp
Duration                                 : 2 h 33 min
Encoded date                             : UTC 2014-05-04 21:02:19
Tagged date                              : UTC 2014-05-04 21:02:26
Bit rate mode                            : CBR

 
 
 
 
Category:Movies > WEB-HD
Lang:Hindi
Total Size:1,002.59 MB
Info Hash:51f0adeae3b2f998695103dd0f8de54a2d31ea02
Added By:TeamJio
Date Added:07-02-2018 11:55:18
Downloads:209

Ratings:Not Yet Rated (Log in to rate it)


Tracker:
udp://tracker.opentrackr.org:1337/announce


File List: 


Comments

No comments still posted

Top
Copyright 2018 DownloadHD -|- Page Generated In 1.622705 secs.
-|- RSS Feed -|- Feed Info
Saras y Kumud: Almas gemelas | Amazon Music Unlimited | Animation