Login
Username:
Password:
[Signup]
[Recover Account]


Browse Torrents

Poll


You must be logged in to view polls



Latest Torrents
Hunter.Killer.2018...
- [Size: 1.31 GB]

Hunter.Killer.2018...
- [Size: 1.31 GB]

A.Boy.A.Girl.A.Dre...
- [Size: 3.69 GB]

Christmas.Presence...
- [Size: 4.02 GB]

The.Case.That.Haun...
- [Size: 234.82 MB]


Torrent Details For "Daddys Home 2 2017 1080p BRRip x264 AAC - Download"

Daddys Home 2 2017 1080p BRRip x264 AAC - Download

Download this torrent | Magnet Download
Health:
Seeds: 5
Leechers: 0
Completed:
Last Checked: 14-12-2018 15:14:14
External Torrent
Update Stats



Images Host

Poster


iMDB
Imdb Picture Title: Daddy's Home 2
Year: 2017
Runtime: 100 minutes
Votes: 3264
Rating: 6.2/10
Language: English
Country: USA
All Genres: Comedy
Plot Outline: Having finally gotten used to each other's existence, Brad and Dusty must now deal with their intrusive fathers during the holidays.
Tagline: They thought they had Christmas all wrapped up...
Director: Sean Anders
Writing By: Sean Anders,Brian Burns,John Morris,
Produced By: Molly Allen,Sean Anders,Will Ferrell,Chris Henchy,Stephen Levinson,Adam McKay,Kevin J. Messick,John Morris,Mark Wahlberg,
Music: Michael Andrews
Cast:
Will Ferrell as Brad
Mark Wahlberg as Dusty
Mel Gibson as Kurt
John Lithgow as Don
Linda Cardellini as Sara
Alessandra Ambrosio as Karen
Owen Vaccaro as Dylan
Scarlett Estevez as Megan
Didi Costine as Adrianna
Connor Wise as Griffy
Trailers:
Official Holiday Trailer
Trailer #2
Trailer #1


Watch-Free-HD     Download

Details
Name:Daddys Home 2 2017 1080p BRRip x264 AAC - Download
Description:
Daddys Home 2 2017 1080p BRRip x264 AAC - Download

Source:BLOW
Format                      : Matroska
Format version              : Version 4 / Version 2
File size                   : 1.97 GiB
Duration                    : 1 h 39 min
Overall bit rate            : 2 822 kb/s
Movie name                  : Daddys Home 2 2017 - Download


Video
ID                          : 1
Format                      : AVC
Format/Info                 : Advanced Video Codec
Format profile              : [email protected]
Format settings, CABAC      : Yes
Format settings, RefFrames  : 4 frames
Codec ID                    : V_MPEG4/ISO/AVC
Duration                    : 1 h 39 min
Bit rate                    : 2 500 kb/s
Width                       : 1 920 pixels
Height                      : 1 080 pixels
Display aspect ratio        : 16:9
Frame rate mode             : Constant
Frame rate                  : 23.976 (24000/1001) FPS
Language                    : English
Default                     : Yes
Forced                      : No
Color range                 : Limited
Color primaries             : BT.709
Transfer characteristics    : BT.709
Matrix coefficients         : BT.709

Audio
ID                          : 2
Format                      : AAC
Format/Info                 : Advanced Audio Codec
Format profile              : LC
Codec ID                    : A_AAC
Duration                    : 1 h 39 min
Bit rate                    : 320 kb/s
Channel(s)                  : 6 channels
Channel positions           : Front: L C R, Side: L R, LFE
Sampling rate               : 48.0 kHz
Frame rate                  : 46.875 FPS (1024 SPF)
Compression mode            : Lossy
Delay relative to video     : 9 ms
Stream size                 : 228 MiB (11%)
Language                    : English
Default                     : Yes
Forced                      : No

Text #1
ID                          : 3
Format                      : UTF-8
Codec ID                    : S_TEXT/UTF8
Codec ID/Info               : UTF-8 Plain Text
Duration                    : 4 s 213 ms
Bit rate                    : 136 b/s
Count of elements           : 1
Stream size                 : 72.0 Bytes (0%)
Title                       : English forced
Language                    : English
Default                     : No
Forced                      : Yes

Text #2
ID                          : 4
Format                      : UTF-8
Codec ID                    : S_TEXT/UTF8
Codec ID/Info               : UTF-8 Plain Text
Duration                    : 1 h 38 min
Bit rate                    : 101 b/s
Count of elements           : 2335
Stream size                 : 72.8 KiB (0%)
Title                       : English regular
Language                    : English
Default                     : No
Forced                      : No

Menu
00:00:00.000                : en:00:00:00.000
00:08:08.530                : en:00:08:08.530
00:16:08.092                : en:00:16:08.092
00:21:44.053                : en:00:21:44.053
00:27:40.158                : en:00:27:40.158
00:32:47.424                : en:00:32:47.424
00:40:49.030                : en:00:40:49.030
00:47:57.166                : en:00:47:57.166
00:52:27.895                : en:00:52:27.895
01:00:08.730                : en:01:00:08.730
01:08:37.363                : en:01:08:37.363
01:15:23.102                : en:01:15:23.102
01:26:24.846                : en:01:26:24.846
01:33:34.943                : en:01:33:34.943


           

Category:Movies > 1080P Bluray
Lang:English  English
Total Size:1.97 GB
Info Hash:46200586790e18e933cce6c602c8631746e2568f
Added By:Download
Date Added:07-02-2018 05:55:25
Downloads:389

Ratings:Not Yet Rated (Log in to rate it)


Tracker:
udp://tracker.coppersurfer.tk:6969/announce


File List: 


Comments

No comments still posted

Top
Copyright 2018 DownloadHD -|- Page Generated In 1.078256 secs.
-|- RSS Feed -|- Feed Info
Delicate Tulle High Collar Ball Gown Wedding Dresses With Lace Ap... | Red Dead Redemption 2 soluce | 3 December