Login
Username:
Password:
[Signup]
[Recover Account]


Browse Torrents

Poll


You must be logged in to view polls



Latest Torrents
Murphy.Brown.S11E1...
- [Size: 148.61 MB]

Live.PD.S03E27.HDT...
- [Size: 1.29 GB]

Legacies.S01E07.HD...
- [Size: 194.67 MB]

Murphy.Brown.S11E1...
- [Size: 518.65 MB]

Legacies.S01E07.72...
- [Size: 728.13 MB]


Torrent Details For "XXX 2002 REMASTERED 1080p BRRip x264 AAC -Download"

XXX 2002 REMASTERED 1080p BRRip x264 AAC -Download

Download this torrent | Magnet Download
Health:
Seeds: 0
Leechers: 9
Completed:
Last Checked: 11-11-2018 05:37:16
External Torrent
Update Stats



Images Host

Poster


iMDB
Imdb Picture Title: xXx
Year: 2002
Runtime: 124 minutes
Votes: 153319
Rating: 5.8/10
Language: English, German, Spanish, Russian, Czech
Country: USA
All Genres: Action, Adventure, Thriller
Plot Outline: An extreme sports athlete, Xander Cage, is recruited by the government on a special mission.
Tagline: If you want someone to save the world, make sure it's someone who likes the world as it is.
Director: Rob Cohen
Writing By: Rich Wilkes,
Produced By: Creighton Bellinger,Derek Dauchy,Vin Diesel,Todd Garner,David Minkowski,Neal H. Moritz,Michelle Purple,Arne Schmidt,Matthew Stillman,George Zakk,
Music: Randy Edelman
Plot:

Xander "XXX" Cage is a thrill seeker who until now has been deemed untouchable by the law. NSA Agent Gibbons forces XXX to cooperate with the government to infiltrate an underground Russian crime ring, and avoid going to prison. Gibbons sends XXX to enter this world of crime undetected where others have failed, using his natural athletic prowess and a whole lot of attitude. Xander must combat an organization led by a clever, ruthless and nihilistic Yorgi whose first target is the city of Prague.

- Written by Artemis-9

An extreme sports athlete, Xander Cage, is recruited by the government on a special mission.

- Written by Ryan McIntosh
Cast:
Vin Diesel as Xander Cage
Asia Argento as Yelena
Marton Csokas as Yorgi
Samuel L. Jackson as Agent Augustus Gibbons
Michael Roof as Toby Lee Shavers
Richy Müller as Milan Sova
Werner Daehn as Kirill
Petr Jákl as Kolya
Jan Pavel Filipensky as Viktor
Tom Everett as Senator Dick Hotchkiss


Watch-Free-HD     Download

Details
Name:XXX 2002 REMASTERED 1080p BRRip x264 AAC -Download
Description:
XXX 2002 REMASTERED 1080p BRRip x264 AAC -Download

Source:Scene
Format                      : Matroska
Format version              : Version 4 / Version 2
File size                   : 2.45 GiB
Duration                    : 2 h 4 min
Overall bit rate            : 2 821 kb/s
Movie name                  : XXX 2002 - Download


Video
ID                          : 1
Format                      : AVC
Format/Info                 : Advanced Video Codec
Format profile              : [email protected]
Format settings, CABAC      : Yes
Format settings, RefFrames  : 5 frames
Codec ID                    : V_MPEG4/ISO/AVC
Duration                    : 2 h 4 min
Bit rate                    : 2 500 kb/s
Width                       : 1 920 pixels
Height                      : 800 pixels
Display aspect ratio        : 2.40:1
Frame rate mode             : Constant
Frame rate                  : 23.976 (24000/1001) FPS
Language                    : English
Default                     : Yes
Forced                      : No
Color range                 : Limited
Color primaries             : BT.709
Transfer characteristics    : BT.709
Matrix coefficients         : BT.709

Audio
ID                          : 2
Format                      : AAC
Format/Info                 : Advanced Audio Codec
Format profile              : LC
Codec ID                    : A_AAC
Duration                    : 2 h 4 min
Bit rate                    : 320 kb/s
Channel(s)                  : 6 channels
Channel positions           : Front: L C R, Side: L R, LFE
Sampling rate               : 48.0 kHz
Frame rate                  : 46.875 FPS (1024 SPF)
Compression mode            : Lossy
Delay relative to video     : 9 ms
Stream size                 : 284 MiB (11%)
Language                    : English
Default                     : Yes
Forced                      : No

Text #1
ID                          : 3
Format                      : UTF-8
Codec ID                    : S_TEXT/UTF8
Codec ID/Info               : UTF-8 Plain Text
Duration                    : 1 h 52 min
Bit rate                    : 42 b/s
Count of elements           : 902
Stream size                 : 35.1 KiB (0%)
Title                       : English
Default                     : No
Forced                      : No

Text #2
ID                          : 4
Format                      : UTF-8
Codec ID                    : S_TEXT/UTF8
Codec ID/Info               : UTF-8 Plain Text
Duration                    : 1 h 34 min
Bit rate                    : 0 b/s
Count of elements           : 27
Stream size                 : 650 Bytes (0%)
Title                       : English Forced
Default                     : No
Forced                      : Yes

Text #3
ID                          : 5
Format                      : UTF-8
Codec ID                    : S_TEXT/UTF8
Codec ID/Info               : UTF-8 Plain Text
Duration                    : 1 h 56 min
Bit rate                    : 49 b/s
Count of elements           : 1385
Stream size                 : 42.1 KiB (0%)
Title                       : English SDH
Default                     : No
Forced                      : No

Menu
00:00:00.000                : en:01
00:05:40.590                : en:02
00:12:29.457                : en:03
00:23:59.438                : en:04
00:32:27.821                : en:05
00:42:18.870                : en:06
00:50:25.689                : en:07
00:57:10.427                : en:08
01:04:33.870                : en:09
01:12:01.400                : en:10
01:20:59.563                : en:11
01:26:36.274                : en:12
01:32:44.601                : en:13
01:39:01.269                : en:14
01:45:57.059                : en:15
01:49:40.824                : en:16

           
Category:Movies > 1080P Bluray
Lang:English  English
Total Size:2.45 GB
Info Hash:d6435a6efd4eee678c376d9cb985115ec25a8d9e
Added By:Download
Date Added:04-02-2018 10:19:39
Downloads:246

Ratings:Not Yet Rated (Log in to rate it)


Tracker:
udp://tracker.coppersurfer.tk:6969/announce


File List: 


Comments

No comments still posted

Top
Copyright 2018 DownloadHD -|- Page Generated In 0.708723 secs.
-|- RSS Feed -|- Feed Info
男の子 | Mobile Police Patlabor | [EX-TORRENTY ORG] Crazy Rich Asians 2018 PL 480p BDRip XviD AC3-AZQ