Login
Username:
Password:
[Signup]
[Recover Account]


Browse Torrents

Poll


You must be logged in to view polls



Latest Torrents
Puzzle.2018.HDRip....
- [Size: 1.43 GB]

Puzzle.2018.HDRip....
- [Size: 1.34 GB]

Sui.Dhaaga.2018.Hi...
- [Size: 3.00 GB]

The Girl in the Sp...
- [Size: 972.81 MB]

Sally4Ever.S01E01....
- [Size: 195.91 MB]


Torrent Details For "Nayak The Real Hero 2001 Untouched WEB-Dl Team Jio"

Nayak The Real Hero 2001 Untouched WEB-Dl Team Jio

Download this torrent | Magnet Download
Health:
Seeds: 0
Leechers: 4
Completed:
Last Checked: 31-05-2018 09:40:51
External Torrent
Update Stats



Images Host

Poster


Watch-Free-HD     Download

Details
Name:Nayak The Real Hero 2001 Untouched WEB-Dl Team Jio
Description:





Quote:

Format                                   : MPEG-4
Format profile                           : Base Media
Codec ID                                 : isom (isom/iso2/avc1/mp41)
File size                                : 2.62 GiB
Duration                                 : 3 h 2 min
Overall bit rate                         : 2 054 kb/s
Writing application                      : Lavf56.23.105

Video
ID                                       : 1
Format                                   : AVC
Format/Info                              : Advanced Video Codec
Format profile                           : [email protected]
Format settings                          : CABAC / 3 Ref Frames
Format settings, CABAC                   : Yes
Format settings, RefFrames               : 3 frames
Codec ID                                 : avc1
Codec ID/Info                            : Advanced Video Coding
Duration                                 : 3 h 2 min
Bit rate                                 : 1 922 kb/s
Width                                    : 1 920 pixels
Height                                   : 1 080 pixels
Display aspect ratio                     : 16:9
Frame rate mode                          : Constant
Frame rate                               : 25.000 FPS
Color space                              : YUV
Chroma subsampling                       : 4:2:0
Bit depth                                : 8 bits
Scan type                                : Progressive
Bits/(Pixel*Frame)                       : 0.037
Stream size                              : 2.45 GiB (94%)
Color range                              : Limited
Color primaries                          : BT.709
Transfer characteristics                 : BT.709
Matrix coefficients                      : BT.709

Audio
ID                                       : 2
Format                                   : AAC
Format/Info                              : Advanced Audio Codec
Format profile                           : LC
Codec ID                                 : mp4a-40-2
Duration                                 : 3 h 2 min
Bit rate mode                            : Constant
Bit rate                                 : 126 kb/s
Channel(s)                               : 2 channels
Channel positions                        : Front: L R
Sampling rate                            : 44.1 kHz
Frame rate                               : 43.066 FPS (1024 SPF)
Compression mode                         : Lossy
Stream size                              : 164 MiB (6%)
Default                                  : Yes
Alternate group                          : 1

 
 
 
 
 
 
Category:Movies > Bollywood
Lang:Hindi
Total Size:2.62 GB
Info Hash:6ca1929a87e736a9785e285b38e855b7c55d508e
Added By:TeamJio
Date Added:01-02-2018 12:22:49
Downloads:504

Ratings:Not Yet Rated (Log in to rate it)


Tracker:
udp://tracker.opentrackr.org:1337/announce


File List: 


Comments

No comments still posted

Top
Copyright 2018 DownloadHD -|- Page Generated In 0.713303 secs.
-|- RSS Feed -|- Feed Info