Login
Username:
Password:
[Signup]
[Recover Account]


Browse Torrents

Poll


You must be logged in to view polls



Latest Torrents
Tigers 2018 Hindi ...
- [Size: 836.75 MB]

WWE Smackdown Live...
- [Size: 272.04 MB]

WWE Smackdown Live...
- [Size: 725.36 MB]

Nocturnal Animals ...
- [Size: 4.99 GB]

Tosh.0.S10E20.WEB....
- [Size: 201.90 MB]


Torrent Details For "Van Helsing 2004 1080p Bbrip Dual Audio Hin5.1+EngDts Esub Skyler"

Van Helsing 2004 1080p Bbrip Dual Audio Hin5.1+EngDts Esub Skyler

Download this torrent | Magnet Download
Health:
Seeds: 0
Leechers: 7
Completed: 43 
Last Checked: 24-09-2018 13:04:01
External Torrent
Update Stats



Images Host

Poster


iMDB
Imdb Picture Title: Van Helsing
Year: 2004
Runtime: 131 minutes
Votes: 211484
Rating: 6.0/10
Language: English, Latin
Country: USA, Czech Republic
All Genres: Action, Adventure, Fantasy
Plot Outline: The notorious monster hunter is sent to Transylvania to stop Count Dracula who is using Dr. Frankenstein's research and a werewolf for some sinister purpose.
Tagline: A Stephen Sommers film
Director: Stephen Sommers
Writing By: Stephen Sommers,
Produced By: Bob Ducsay,Sam Mercer,David Minkowski,Artist W. Robinson,Stephen Sommers,Matthew Stillman,
Music: Alan Silvestri
Cast:
Hugh Jackman as Van Helsing
Kate Beckinsale as Anna Valerious
Richard Roxburgh as Count Vladislaus Dracula
David Wenham as Carl
Shuler Hensley as Frankenstein's Monster
Elena Anaya as Aleera
Will Kemp as Velkan
Kevin J. O'Connor as Igor
Alun Armstrong as Cardinal Jinette
Silvia Colloca as Verona


Watch-Free-HD     Download

Details
Name:Van Helsing 2004 1080p Bbrip Dual Audio Hin5.1+EngDts Esub Skyler
Description:





Van Helsing 2004 1080p Bbrip Dual Audio Hin5.1+EngDts Esub Skyler


Video
ID                                       : 1
Format                                   : AVC
Format/Info                              : Advanced Video Codec
Format profile                           : [email protected]
Format settings                          : CABAC / 4 Ref Frames
Format settings, CABAC                   : Yes
Format settings, RefFrames               : 4 frames
Codec ID                                 : V_MPEG4/ISO/AVC
Duration                                 : 2 h 11 min
Bit rate                                 : 1 996 kb/s
Width                                    : 1 920 pixels
Height                                   : 968 pixels
Display aspect ratio                     : 1.983
Frame rate mode                          : Constant
Frame rate                               : 23.976 (24000/1001) FPS
Color space                              : YUV
Chroma subsampling                       : 4:2:0
Bit depth                                : 8 bits
Scan type                                : Progressive
Bits/(Pixel*Frame)                       : 0.045
Stream size                              : 1.83 GiB (51%)
Title                                    : Van Helsing 2004 1080

Audio #1

ID                                       : 2
Format                                   : AC-3
Format/Info                              : Audio Coding 3
Codec ID                                 : A_AC3
Duration                                 : 2 h 11 min
Bit rate mode                            : Constant
Bit rate                                 : 384 kb/s
Channel(s)                               : 2 channels
Channel positions                        : Front: L R
Sampling rate                            : 48.0 kHz
Frame rate                               : 31.250 FPS (1536 SPF)
Bit depth                                : 16 bits
Compression mode                         : Lossy
Stream size                              : 361 MiB (10%)
Title                                    : 5.1 Skyler
Language                                 : Hindi
Service kind                             : Complete Main
Default                                  : No
Forced                                   : No

Audio #2

ID                                       : 3
Format                                   : DTS
Format/Info                              : Digital Theater Systems
Codec ID                                 : A_DTS
Duration                                 : 2 h 11 min
Bit rate mode                            : Constant
Bit rate                                 : 1 509 kb/s
Channel(s)                               : 6 channels
Channel positions                        : Front: L C R, Side: L R, LFE
Sampling rate                            : 48.0 kHz
Frame rate                               : 93.750 FPS (512 SPF)
Bit depth                                : 24 bits
Compression mode                         : Lossy
Stream size                              : 1.39 GiB (39%)
Language                                 : English
Default                                  : Yes
Forced                                   : No

Text

ID                                       : 4
Format                                   : UTF-8
Codec ID                                 : S_TEXT/UTF8
Codec ID/Info                            : UTF-8 Plain Text
Duration                                 : 1 h 58 min
Bit rate                                 : 42 b/s
Count of elements                        : 1157
Stream size                              : 36.9 KiB (0%)
Language                                 : English
Default                                  : No
Forced                                   : No



















Category:Movies > Hollywood Dub
Lang:Hindi
Total Size:3.61 GB
Info Hash:72b8e8876d36dc05c554ea4989043a2c3b56822b
Added By:Skyler
Date Added:01-02-2018 10:55:29
Downloads:248

Ratings:Not Yet Rated (Log in to rate it)


Tracker:
udp://inferno.demonoid.pw:3391/announce


File List: 


Comments

No comments still posted

Top
Copyright 2018 DownloadHD -|- Page Generated In 2.504977 secs.
-|- RSS Feed -|- Feed Info
Genuine Gorgeous Leather Michael Kors Hamilton Bag With Dustbag | Season 3 Episode 13 Mime Your Own Business | The Other Side ...