Login
Username:
Password:
[Signup]
[Recover Account]


Browse Torrents

Poll


You must be logged in to view polls



Latest Torrents
Blood.UK.S01E01E02...
- [Size: 387.18 MB]

Hero No Zero 3 (Ma...
- [Size: 638.09 MB]

Chalbaaz (2018) Sa...
- [Size: 699.80 MB]

Bodhon [2017] Beng...
- [Size: 583.86 MB]

Munni Metric Pass ...
- [Size: 591.77 MB]


Torrent Details For "Untouchables 2018 (Episode 1 to 15) Hindi 720p HDRip x264 AAC.-.Link2download"

Untouchables 2018 (Episode 1 to 15) Hindi 720p HDRip x264 AAC.-.Link2download

Download this torrent | Magnet Download
Health:
Seeds: 0
Leechers: 18
Completed:
Last Checked: 18-07-2018 08:38:55
External Torrent
Update Stats



Images Host

Poster


Watch-Free-HD     Download

Details
Name:Untouchables 2018 (Episode 1 to 15) Hindi 720p HDRip x264 AAC.-.Link2download
Description:
[img]http://i0.wp.com/urbanasian.com/wp-content/uploads/2018/01/Untouchables-Poster.jpg?resize=640%2C918&ssl=1[/img]



Format                      : Matroska
Format version              : Version 4 / Version 2
File size                   : 115 MiB
Duration                    : 21 min 56 s
Overall bit rate            : 732 kb/s
Encoded date                : UTC 2018-01-30 18:06:53
Writing application         : mkvmerge v7.0.0 ('Where We Going') 64bit built on Jun  9 2014 15:16:27
Writing library             : libebml v1.3.0 + libmatroska v1.4.1

Video
ID                          : 1
Format                      : AVC
Format/Info                 : Advanced Video Codec
Format profile              : [email protected]
Format settings             : CABAC / 4 Ref Frames
Format settings, CABAC      : Yes
Format settings, ReFrames   : 4 frames
Codec ID                    : V_MPEG4/ISO/AVC
Duration                    : 21 min 56 s
Bit rate                    : 602 kb/s
Width                       : 1 280 pixels
Height                      : 544 pixels
Display aspect ratio        : 2.35:1
Frame rate mode             : Constant
Frame rate                  : 23.976 (24000/1001) FPS
Color space                 : YUV
Chroma subsampling          : 4:2:0
Bit depth                   : 8 bits
Scan type                   : Progressive
Bits/(Pixel*Frame)          : 0.036
Stream size                 : 94.5 MiB (82%)
Writing library             : x264 core 148 r2708 86b7198
Default                     : Yes
Forced                      : No
Color range                 : Limited
Color primaries             : BT.709
Transfer characteristics    : BT.709
Matrix coefficients         : BT.709

Audio
ID                          : 2
Format                      : AAC
Format/Info                 : Advanced Audio Codec
Format profile              : LC
Codec ID                    : A_AAC-2
Duration                    : 21 min 56 s
Bit rate                    : 128 kb/s
Channel(s)                  : 2 channels
Channel positions           : Front: L R
Sampling rate               : 48.0 kHz
Frame rate                  : 46.875 FPS (1024 SPF)
Compression mode            : Lossy
Delay relative to video     : -21 ms
Stream size                 : 20.1 MiB (17%)
Default                     : Yes
Forced                      : No










Category:TV > Indian
Lang:Hindi
Total Size:1.44 GB
Info Hash:9a1cd9d04bf5d453f5db449c4f070c62ea4c6d5b
Added By:link2download
Date Added:30-01-2018 18:51:02
Downloads:540

Ratings:Not Yet Rated (Log in to rate it)


Tracker:
udp://tracker.openbittorrent.com:80/announce

This Torrent also has backup trackers
URLSeedersLeechersCompleted
http://ipv4.tracker.harry.lu/announce000
http://ipv4.tracker.harry.lu:80/announce000
http://opentracker-milanesi.rhcloud.com/announce000
http://t.nyaatracker.com/announce020
http://tracker.devil-torrents.pl:80/announce000
http://tracker.devil-torrents.pl/announce000
http://open.kickasstracker.com/announce130
http://opentracker-milanesi.rhcloud.com:80/announce000
http://open.kickasstracker.com:443/announce130
http://opentracker-milanesi.rhcloud.com:443/announce000
http://t.nyaatracker.com:80/announce020


File List: 


Comments

<< Previous      Next >>
1 - 1

[Report] Posted: 31-01-2018 at 06:52:11
kasukata



This is not a valid RAR archive. Thanks :-(

1 - 1
<< Previous      Next >>


Top
Copyright 2018 DownloadHD -|- Page Generated In 0.331074 secs.
-|- RSS Feed -|- Feed Info
Akte.X.S11E04.Der.Mandela-Effekt.German.Dubbed.DL.AmazonHD.x264-TVS | Instant price | Slowly Veggie (2)