Login
Username:
Password:
[Signup]
[Recover Account]


Browse Torrents

Poll


You must be logged in to view polls



Latest Torrents
18+ DAD FRIEND (20...
- [Size: 579.60 MB]

Rita Ora - Phoenix...
- [Size: 129.09 MB]

Batti Gul Meter Ch...
- [Size: 1.54 GB]

James.Corden.2018....
- [Size: 627.02 MB]

Stephen.Colbert.20...
- [Size: 649.06 MB]


Torrent Details For "Scare.Campaign.2017.BRRip.XviD.AC3.LLG"

Scare.Campaign.2017.BRRip.XviD.AC3.LLG

Download this torrent | Magnet Download
Health:
Seeds: 0
Leechers: 9
Completed:
Last Checked: 30-01-2018 10:23:14
External Torrent
Update Stats



Images Host

Poster
No poster


iMDB
Imdb Picture Title: Scare Campaign
Year: 2016
Runtime: 80 minutes
Votes: 1833
Rating: 5.9/10
Language: English
Country: Australia
All Genres: Horror
Plot Outline: A group of people run a TV show where they set up locations to scare people. Things go horribly wrong when the producer wants them to get darker as they set up an asylum to spook the new target: a creepy guy who used to work there.
Tagline: Kime saka yaptigina dikkat et!
Director: Cameron Cairnes
Colin Cairnes
Writing By: Cameron Cairnes,Colin Cairnes,
Produced By: Bryce Menzies,Jonathan Page,Julie Ryan,Roger Savage,
Cast:
Meegan Warner as Emma
Ian Meadows as Marcus
Olivia DeJonge as Abby
Josh Quong Tart as Rohan
Patrick Harvey as JD
Cassandra Magrath as Suze
Steve Mouzakis as Tony
John Brumpton as George
Jason Geary as Dick
Sigrid Thornton as Vicki
Trailers:
Scare Campaign


Watch-Free-HD     Download

Details
Name:Scare.Campaign.2017.BRRip.XviD.AC3.LLG
Description:
******************************Thumbnail:**********************

 

******************************Screenshots:********************

 Screenshot 1

 Screenshot 2

 Screenshot 3

 Screenshot 4

 Screenshot 5

 Screenshot 6

 Screenshot 7

 Screenshot 8

 Screenshot 9

 Screenshot 0

**************************************************************

Complete name                            : Scare.Campaign.2016.BRRip.XviD.AC3.LLG.mp4
Format                                   : MPEG-4
Format profile                           : Base Media
Codec ID                                 : isom (isom/iso2/avc1/mp41)
File size                                : 821 MiB
Duration                                 : 1 h 20 min
Overall bit rate                         : 1 431 kb/s
Writing application                      : Lavf57.56.101

Video
ID                                       : 1
Format                                   : AVC
Format/Info                              : Advanced Video Codec
Format profile                           : [email protected]
Format settings                          : CABAC / 4 Ref Frames
Format settings, CABAC                   : Yes
Format settings, RefFrames               : 4 frames
Codec ID                                 : avc1
Codec ID/Info                            : Advanced Video Coding
Duration                                 : 1 h 20 min
Bit rate                                 : 1 200 kb/s
Width                                    : 720 pixels
Height                                   : 304 pixels
Display aspect ratio                     : 2.35:1
Frame rate mode                          : Constant
Frame rate                               : 24.000 FPS
Color space                              : YUV
Chroma subsampling                       : 4:2:0
Bit depth                                : 8 bits
Scan type                                : Progressive
Bits/(Pixel*Frame)                       : 0.228
Stream size                              : 671 MiB (82%)

Audio
ID                                       : 2
Format                                   : AC-3
Format/Info                              : Audio Coding 3
Codec ID                                 : ac-3
Duration                                 : 1 h 20 min
Bit rate mode                            : Constant
Bit rate                                 : 256 kb/s
Channel(s)                               : 6 channels
Channel positions                        : Front: L C R, Side: L R, LFE
Sampling rate                            : 48.0 kHz
Frame rate                               : 31.250 FPS (1536 SPF)
Bit depth                                : 16 bits
Compression mode                         : Lossy
Stream size                              : 147 MiB (18%)
Service kind                             : Complete Main
Default                                  : Yes
Alternate group                          : 1

Category:Movies > HDRips
Lang:English  English
Total Size:829.79 MB
Info Hash:881105f99622da5a398c3f9f9a71cedc541e0345
Added By:LifeLongg
Date Added:30-01-2018 08:55:59
Downloads:42

Ratings:Not Yet Rated (Log in to rate it)


Tracker:
udp://tracker.openbittorrent.com:80/announce


File List: 


Comments

<< Previous      Next >>
1 - 1

[Report] Posted: 30-01-2018 at 08:58:20
DownloadHD
Team DownloadHD


this is not Xvid according to media info... :bad

1 - 1
<< Previous      Next >>


Top
Copyright 2018 DownloadHD -|- Page Generated In 0.485208 secs.
-|- RSS Feed -|- Feed Info
Eps10 The Haunting of Hill House - Season 1 (2018) | Renovar cuenta netload | Degrassi: Nowe pokolenie / ...