Login
Username:
Password:
[Signup]
[Recover Account]


Browse Torrents

Poll


You must be logged in to view polls



Latest Torrents
A Turtle's Tale 2 ...
- [Size: 1.26 GB]

Ekon.Eken-[2018]-[...
- [Size: 1.99 GB]

Madras Cafe (2013)...
- [Size: 1.69 GB]

Crazy Frog - The B...
- [Size: 111.67 MB]

Beyond.The.Sky.201...
- [Size: 16.97 GB]


Torrent Details For "Tarazu 1997 - Full Movie - Akshay Kumar, Sonali Bendre, Ranjeet, Kader Khan, Amrish Puri"

Tarazu 1997 - Full Movie - Akshay Kumar, Sonali Bendre, Ranjeet, Kader Khan, Amrish Puri

Download this torrent | Magnet Download
Health:
Seeds: 0
Leechers: 24
Completed:
Last Checked: 19-01-2018 13:40:14
External Torrent
Update Stats



Images Host

Poster


iMDB
Imdb Picture Title: Tarazu
Year: 1997
Votes: 524
Rating: 5.1/10
Language: Hindi
Country: India
All Genres: Action, Crime, Drama, Romance
Plot Outline: Honest and diligent police inspector Ram Yadav investigations into the burning to death of a female college student lead him to conclude that Janardan the son of notorious gangster, Appa ...
Tagline: Police officer takes justice in his hands.
Director: Vimal Kumar

Produced By: Vinod Malhotra,
Music: Rajesh Roshan
Cast:
Akshay Kumar as Inspector Ram Yadav
Sonali Bendre as Pooja
Mohnish Bahl as Janardan (Appa Rao's son)
Amrish Puri as Appa Rao
Anil Dhawan as Raj Yadav (Ram's brother)
Shashi Sharma as Akshay Kumar's Sister-in-law
Ranjeet as Police Commissioner
Kader Khan as Khan Hindustani
Rana Jung Bahadur as
Akbar Bakshi as


Watch-Free-HD     Download

Details
Name:Tarazu 1997 - Full Movie - Akshay Kumar, Sonali Bendre, Ranjeet, Kader Khan, Amrish Puri
Description:




-:@ General @:-

Format                                   : MPEG-4
Format profile                           : Base Media / Version 2
Codec ID                                 : mp42
File size                                : 1.00 GiB
Duration                                 : 2h 24mn
Overall bit rate mode                    : Variable
Overall bit rate                         : 993 Kbps
Encoded date                             : UTC 2017-12-27 04:00:17
Tagged date                              : UTC 2017-12-27 04:00:17
gsst                                     : 0
gstd                                     : 8687606

-:@ Video @:-

ID                                       : 1
Format                                   : AVC
Format/Info                              : Advanced Video Codec
Format profile                           : [email protected]
Format settings, CABAC                   : Yes
Format settings, ReFrames                : 3 frames
Codec ID                                 : avc1
Codec ID/Info                            : Advanced Video Coding
Duration                                 : 2h 24mn
Bit rate mode                            : Variable
Bit rate                                 : 863 Kbps
Width                                    : 1 280 pixels
Height                                   : 720 pixels
Display aspect ratio                     : 16:9
Frame rate mode                          : Constant
Frame rate                               : 25.000 fps
Color space                              : YUV
Chroma subsampling                       : 4:2:0
Bit depth                                : 8 bits
Scan type                                : Progressive
Bits/(Pixel*Frame)                       : 0.037
Stream size                              : 894 MiB (87%)
Title                                    : ISO Media file produced by Google Inc. Created on: 12/26/2017.
Encoded date                             : UTC 2017-12-27 04:00:17
Tagged date                              : UTC 2017-12-27 04:00:17
Color primaries                          : BT.709
Transfer characteristics                 : BT.709
Matrix coefficients                      : BT.709

-:@ Audio @:-

ID                                       : 2
Format                                   : AAC
Format/Info                              : Advanced Audio Codec
Format profile                           : LC
Codec ID                                 : 40
Duration                                 : 2h 24mn
Bit rate mode                            : Variable
Bit rate                                 : 126 Kbps
Channel count                            : 2 channels
Channel positions                        : Front: L R
Sampling rate                            : 44.1 KHz
Compression mode                         : Lossy
Delay relative to video                  : 40ms
Stream size                              : 130 MiB (13%)
Title                                    : ISO Media file produced by Google Inc. Created on: 12/26/2017.
Encoded date                             : UTC 2017-12-27 04:00:17
Tagged date                              : UTC 2017-12-27 04:00:17

[b]-:@ Screen Shots @:-

















1CnbmYmViVdxgLnhqJzp2ENzsWxnx4iUyT

-:@ Visit Us @:-

 http://filmiwar.com/

Category:Movies > Bollywood
Lang:Hindi
Total Size:1.00 GB
Info Hash:efe214c83f092fff57d942b14bfec3e064c30c71
Added By:filmiwar
Date Added:19-01-2018 05:21:12
Downloads:506

Ratings:Not Yet Rated (Log in to rate it)


Tracker:
udp://tracker.coppersurfer.tk:6969/announce


File List: 


Comments

No comments still posted

Top
Copyright 2018 DownloadHD -|- Page Generated In 1.766182 secs.
-|- RSS Feed -|- Feed Info
Adobe SpeedGrade CC v7.0. | Autositzbezge | Tom and Jerry Willy Wonka and the Chocolate Factory