Login
Username:
Password:
[Signup]
[Recover Account]


Browse Torrents

Poll


You must be logged in to view polls



Latest Torrents
Hunter.Killer.2018...
- [Size: 1.31 GB]

Hunter.Killer.2018...
- [Size: 1.31 GB]

A.Boy.A.Girl.A.Dre...
- [Size: 3.69 GB]

Christmas.Presence...
- [Size: 4.02 GB]

The.Case.That.Haun...
- [Size: 234.82 MB]


Torrent Details For "Last Flag Flying 2017 720p BRRip x264 AAC 5.1 - Download"

Last Flag Flying 2017 720p BRRip x264 AAC 5.1 - Download

Download this torrent | Magnet Download
Health:
Seeds: 0
Leechers: 6
Completed: 57 
Last Checked: 16-02-2018 06:28:29
External Torrent
Update Stats



Images Host

Poster


iMDB
Imdb Picture Title: Last Flag Flying
Year: 2017
Runtime: 125 minutes
Votes: 1235
Rating: 7.4/10
Language: English
Country: USA
All Genres: Comedy, Drama, War
Plot Outline: Thirty years after they served together in Vietnam, a former Navy Corpsman Larry "Doc" Shepherd re-unites with his old buddies, former Marines Sal Nealon and Reverend Richard Mueller, to bury his son, a young Marine killed in the Iraq War.
Tagline: Their Last Mission Wasn't On The Battlefield
Director: Richard Linklater
Writing By: Richard Linklater,Darryl Ponicsan,Darryl Ponicsan,
Produced By: Karen Ruth Getchell,Harry Gittes,Richard Linklater,Ginger Sledge,John Sloss,Thomas Lee Wright,
Music: Graham Reynolds
Cast:
Bryan Cranston as Sal Nealon
Laurence Fishburne as Reverend Richard Mueller
Steve Carell as Larry 'Doc' Shepherd
J. Quinton Johnson as Washington
Deanna Reed-Foster as Ruth
Yul Vazquez as Colonel Wilits
Graham Wolfe as John Redman
Jeff Monahan as O'Toole
Dontez James as DAFB Guard
Tammy Tsai as Mother (Irene)
Trailers:
Trailer


Watch-Free-HD     Download

Details
Name:Last Flag Flying 2017 720p BRRip x264 AAC 5.1 - Download
Description:
Last Flag Flying 2017 720p BRRip x264 AAC 5.1 - Download

Source: Drones
Format                      : Matroska
Format version              : Version 4 / Version 2
File size                   : 1.22 GiB
Duration                    : 2 h 5 min
Overall bit rate            : 1 393 kb/s
Movie name                  : Last Flag Flying 2017 - Download


Video
ID                          : 1
Format                      : AVC
Format/Info                 : Advanced Video Codec
Format profile              : [email protected]
Format settings, CABAC      : Yes
Format settings, RefFrames  : 8 frames
Codec ID                    : V_MPEG4/ISO/AVC
Duration                    : 2 h 5 min
Bit rate                    : 1 200 kb/s
Width                       : 1 280 pixels
Height                      : 688 pixels
Display aspect ratio        : 1.85:1
Frame rate mode             : Constant
Frame rate                  : 23.976 (24000/1001) FPS
Language                    : English
Default                     : Yes
Forced                      : No
Color range                 : Limited
Color primaries             : BT.709
Transfer characteristics    : BT.709
Matrix coefficients         : BT.709

Audio
ID                          : 2
Format                      : AAC
Format/Info                 : Advanced Audio Codec
Format profile              : LC
Codec ID                    : A_AAC
Duration                    : 2 h 5 min
Bit rate                    : 192 kb/s
Channel(s)                  : 6 channels
Channel positions           : Front: L C R, Side: L R, LFE
Sampling rate               : 48.0 kHz
Frame rate                  : 46.875 FPS (1024 SPF)
Compression mode            : Lossy
Delay relative to video     : 9 ms
Stream size                 : 171 MiB (14%)
Language                    : English
Default                     : Yes
Forced                      : No

Text
ID                          : 3
Format                      : UTF-8
Codec ID                    : S_TEXT/UTF8
Codec ID/Info               : UTF-8 Plain Text
Duration                    : 2 h 3 min
Bit rate                    : 81 b/s
Count of elements           : 2406
Stream size                 : 74.0 KiB (0%)
Language                    : English
Default                     : Yes
Forced                      : No

Menu
00:00:00.000                : en:00:00:00.000
00:07:58.103                : en:00:07:58.103
00:16:27.862                : en:00:16:27.862
00:22:32.017                : en:00:22:32.017
00:29:00.280                : en:00:29:00.280
00:36:31.314                : en:00:36:31.314
00:43:29.899                : en:00:43:29.899
00:53:16.443                : en:00:53:16.443
01:01:52.792                : en:01:01:52.792
01:14:01.979                : en:01:14:01.979
01:21:33.972                : en:01:21:33.972
01:28:13.747                : en:01:28:13.747
01:34:33.126                : en:01:34:33.126
01:40:56.884                : en:01:40:56.884
01:49:00.367                : en:01:49:00.367
01:58:10.083                : en:01:58:10.083

           
Category:Movies > 720P Bluray
Lang:English  English
Total Size:1.22 GB
Info Hash:d4c7b898f0a024e352904ff9bb1e434d4203803a
Added By:Download
Date Added:17-01-2018 10:05:07
Downloads:76

Ratings:Not Yet Rated (Log in to rate it)


Tracker:
udp://tracker.coppersurfer.tk:6969/announce


File List: 


Comments

No comments still posted

Top
Copyright 2018 DownloadHD -|- Page Generated In 3.011163 secs.
-|- RSS Feed -|- Feed Info
Watch Episode | Overlord (5) | Join Link Exchange