Login
Username:
Password:
[Signup]
[Recover Account]


Browse Torrents

Poll


You must be logged in to view polls



Latest Torrents
18+ DAD FRIEND (20...
- [Size: 579.60 MB]

Rita Ora - Phoenix...
- [Size: 129.09 MB]

Batti Gul Meter Ch...
- [Size: 1.54 GB]

James.Corden.2018....
- [Size: 627.02 MB]

Stephen.Colbert.20...
- [Size: 649.06 MB]


Torrent Details For "Goodbye Christopher Robin (2017) 1080p BDRip DUAL x264 DD5.1 ~ PSYCHO"

Goodbye Christopher Robin (2017) 1080p BDRip DUAL x264 DD5.1 ~ PSYCHO

Download this torrent | Magnet Download
Health:
Seeds: 0
Leechers: 0
Completed:
Last Checked: 19-11-2018 09:44:51
External Torrent
Update Stats



Images Host

Poster


iMDB
Imdb Picture Title: Goodbye Christopher Robin
Year: 2017
Runtime: 107 minutes
Votes: 2378
Rating: 7.2/10
Language: English
Country: UK
All Genres: Biography, Family, History
Plot Outline: A behind-the-scenes look at the life of author A.A. Milne and the creation of the Winnie the Pooh stories inspired by his son C.R. Milne.
Tagline: Inspired by the True Story
Director: Simon Curtis
Writing By: Frank Cottrell Boyce,Simon Vaughan,
Produced By: Steve Christian,Simon Curtis,Mark Hubbard,Damian Jones,Simon Vaughan,
Music: Carter Burwell
Cast:
Vicki Pepperdine as Betty
Margot Robbie as Daphne Milne
Domhnall Gleeson as Alan Milne
Will Tilston as Christopher Robin Aged 8
Alex Lawther as Christopher Robin Aged 18
Stephen Campbell Moore as Ernest
Richard McCabe as Rupert
Geraldine Somerville as Lady O
Mossie Smith as Sharon the Midwife
Stanley Hamblin as Christopher Robin Aged 6 Months
Trailers:
Official Trailer
Official Trailer


Watch-Free-HD     Download

Details
Name:Goodbye Christopher Robin (2017) 1080p BDRip DUAL x264 DD5.1 ~ PSYCHO
Description:
Goodbye Christopher Robin (2017) 1080p BDRip DUAL x264 DD5.1 ~ PSYCHO



General
Unique ID                   : 250735311156046590270429928000867869229 (0xBCA1DD48788C9CB7A5084F78D8F1222D)
Complete name               : Goodbye Christopher Robin (2017) 1080p BDRip DUAL x264 DD5.1 ~ PSYCHO.mkv
Format                      : Matroska
Format version              : Version 4 / Version 2
File size                   : 2.47 GiB
Duration                    : 1 h 47 min
Overall bit rate            : 3 300 kb/s
Movie name                  : Goodbye Christopher Robin (2017) 1080p BDRip DUAL x264 DD5.1 ~ PSYCHO
Encoded date                : UTC 2018-01-14 12:56:20
Writing application         : mkvmerge v8.6.1 ('Flying') 32bit
Writing library             : libebml v1.3.3 + libmatroska v1.4.4

Video
ID                          : 3
Format                      : AVC
Format/Info                 : Advanced Video Codec
Format profile              : [email protected]
Format settings             : CABAC / 5 Ref Frames
Format settings, CABAC      : Yes
Format settings, ReFrames   : 5 frames
Codec ID                    : V_MPEG4/ISO/AVC
Duration                    : 1 h 47 min
Bit rate                    : 2 500 kb/s
Width                       : 1 920 pixels
Height                      : 1 040 pixels
Display aspect ratio        : 1.85:1
Frame rate mode             : Constant
Frame rate                  : 23.976 (24000/1001) FPS
Color space                 : YUV
Chroma subsampling          : 4:2:0
Bit depth                   : 8 bits
Scan type                   : Progressive
Bits/(Pixel*Frame)          : 0.052
Stream size                 : 1.87 GiB (76%)
Title                       : Goodbye Christopher Robin (2017) 1080p BDRip DUAL x264 DD5.1 ~ PSYCHO
Writing library             : x264 core 148 r2708 86b7198
Language                    : English
Default                     : Yes
Forced                      : No
Color range                 : Limited
Color primaries             : BT.709
Transfer characteristics    : BT.709
Matrix coefficients         : BT.709

Audio #1
ID                          : 1
Format                      : AC-3
Format/Info                 : Audio Coding 3
Codec ID                    : A_AC3
Duration                    : 1 h 47 min
Bit rate mode               : Constant
Bit rate                    : 448 kb/s
Channel(s)                  : 6 channels
Channel positions           : Front: L C R, Side: L R, LFE
Sampling rate               : 48.0 kHz
Frame rate                  : 31.250 FPS (1536 SPF)
Bit depth                   : 16 bits
Compression mode            : Lossy
Delay relative to video     : -21 ms
Stream size                 : 343 MiB (14%)
Title                       : RiPPER ~PSYCHO~  ORG BLURAY DOLBY DIGITAL [email protected]~
Language                    : Hindi
Service kind                : Complete Main
Default                     : No
Forced                      : No

Audio #2
ID                          : 4
Format                      : AAC
Format/Info                 : Advanced Audio Codec
Format profile              : LC
Codec ID                    : A_AAC-2
Duration                    : 1 h 47 min
Bit rate                    : 320 kb/s
Channel(s)                  : 6 channels
Channel positions           : Front: L C R, Side: L R, LFE
Sampling rate               : 48.0 kHz
Frame rate                  : 46.875 FPS (1024 SPF)
Compression mode            : Lossy
Delay relative to video     : -21 ms
Stream size                 : 245 MiB (10%)
Title                       : RiPPER ~PSYCHO~  ORG BLURAY DOLBY DIGITAL [email protected]~
Language                    : English
Default                     : Yes
Forced                      : No

Text #1
ID                          : 2
Format                      : PGS
Muxing mode                 : zlib
Codec ID                    : S_HDMV/PGS
Codec ID/Info               : Picture based subtitle format used on BDs/HD-DVDs
Duration                    : 1 h 45 min
Bit rate                    : 10.8 kb/s
Count of elements           : 2852
Stream size                 : 8.13 MiB (0%)
Title                       : ~PSYCHO~
Language                    : Hindi
Default                     : Yes
Forced                      : No

Text #2
ID                          : 5
Format                      : VobSub
Muxing mode                 : zlib
Codec ID                    : S_VOBSUB
Codec ID/Info               : Picture based subtitle format used on DVDs
Duration                    : 1 h 40 min
Bit rate                    : 7 023 b/s
Count of elements           : 1786
Stream size                 : 5.04 MiB (0%)
Title                       : ~PSYCHO~
Language                    : English
Default                     : No
Forced                      : No

Text #3
ID                          : 6
Format                      : VobSub
Muxing mode                 : zlib
Codec ID                    : S_VOBSUB
Codec ID/Info               : Picture based subtitle format used on DVDs
Duration                    : 1 h 41 min
Bit rate                    : 12.7 kb/s
Count of elements           : 2080
Stream size                 : 9.16 MiB (0%)
Title                       : ~PSYCHO~
Language                    : English
Default                     : No
Forced                      : No

Menu
00:00:00.000                : :00:00:00.000
00:04:03.952                : :00:04:03.952
00:07:01.171                : :00:07:01.171
00:10:32.632                : :00:10:32.632
00:13:40.528                : :00:13:40.528
00:16:48.591                : :00:16:48.591
00:20:43.409                : :00:20:43.409
00:25:44.793                : :00:25:44.793
00:30:36.752                : :00:30:36.752
00:35:25.582                : :00:35:25.582
00:40:50.740                : :00:40:50.740
00:48:22.108                : :00:48:22.108
00:52:32.733                : :00:52:32.733
00:57:53.595                : :00:57:53.595
01:03:35.812                : :01:03:35.812
01:07:38.513                : :01:07:38.513
01:12:43.860                : :01:12:43.859
01:18:55.731                : :01:18:55.731
01:21:45.609                : :01:21:45.609
01:25:16.653                : :01:25:16.653
01:29:10.428                : :01:29:10.428
01:32:27.917                : :01:32:27.917
01:35:55.917                : :01:35:55.917
01:41:03.266                : :01:41:03.266



Category:Movies > Hollywood Dub
Lang:English  English
Total Size:2.47 GB
Info Hash:2fe3735f215ff5d443e55c5762cac7d3faa2dc81
Added By:PSYCHO
Date Added:14-01-2018 14:47:53
Downloads:481

Ratings:Not Yet Rated (Log in to rate it)


Tracker:
udp://9.rarbg.me:2710/announce


File List: 


Comments

No comments still posted

Top
Copyright 2018 DownloadHD -|- Page Generated In 3.659776 secs.
-|- RSS Feed -|- Feed Info
Fenster Fensterglas | Team Medical Dragon – Y Đội Rồng chap 147 | 2x05 The Resident