Login
Username:
Password:
[Signup]
[Recover Account]


Browse Torrents

Poll


You must be logged in to view polls



Latest Torrents
Blood.UK.S01E01E02...
- [Size: 387.18 MB]

Hero No Zero 3 (Ma...
- [Size: 638.09 MB]

Chalbaaz (2018) Sa...
- [Size: 699.80 MB]

Bodhon [2017] Beng...
- [Size: 583.86 MB]

Munni Metric Pass ...
- [Size: 591.77 MB]


Torrent Details For "Dil To Pagal Hai (1997) Untouched WEBHD Team Jio"

Dil To Pagal Hai (1997) Untouched WEBHD Team Jio

Download this torrent | Magnet Download
Health:
Seeds: 0
Leechers: 0
Completed:
Last Checked: 18-11-2018 08:08:46
External Torrent
Update Stats



Images Host

Poster


iMDB
Imdb Picture Title: Dil To Pagal Hai
Year: 1997
Runtime: 179 minutes
Votes: 16707
Rating: 7.1/10
Language: Hindi
Country: India
All Genres: Comedy, Drama, Musical, Romance
Plot Outline: A grand musical about three passionate and dreamy characters: Rahul, Pooja and Nisha. Will their dreams come true? Will they find their true love?
Tagline: Someone..... Somewhere..... is made for you.
Director: Yash Chopra
Writing By: Tanuja Chandra,Aditya Chopra,Pamela Chopra,Yash Chopra,
Produced By: Aditya Chopra,Pamela Chopra,Uday Chopra,Yash Chopra,Mahen Vakil,
Music: Uttam Singh
Plot:

DIL TO PAGAL HAI is the story of Rahul (Shahrukh Khan), who does not believe in love. Rahul fails to understand how two people can spend their lives together. It is the story of Pooja (Madhuri Dixit), who believes that there is someone who is made for her and she is destined to meet that person. It is also the story of Nisha (Karisma Kapoor) who believes that love is friendship and one day her dream will come true. Dil To Pagal Hai is a grand musical about passionate people with dreams. Will their dreams come true? Will they find their true love? Dil To Pagal Hai makes us believe that - someone - somewhere - is made for us.

- Written by Official Source

DIL TO PAGAL HAI is the story of Rahul (Shahrukh Khan), who does not believe in love. It is the story of Pooja (Madhuri Dixit), who believes that there is someone who is made for her and she is destined to meet that person. It is the story of Nisha (Karisma Kapoor) who believes that love is friendship and one day her dream will come true. It makes us believe that - someone - somewhere - is made for us.

- Written by Official Source

A grand musical about three passionate and dreamy characters: Rahul, Pooja and Nisha. Will their dreams come true? Will they find their true love?

- Written by Official Source
Cast:
Shah Rukh Khan as Rahul
Madhuri Dixit as Pooja
Karisma Kapoor as Nisha
Akshay Kumar as Ajay (Special Appearance)
Farida Jalal as Ajay's mother
Deven Verma as Ajay's father
Aruna Irani as Nisha's Dai
Murad Ali as
Hemlata Deepak as
Suresh Menon as
Trailers:
Trailer


Watch-Free-HD     Download

Details
Name:Dil To Pagal Hai (1997) Untouched WEBHD Team Jio
Description:
[align=center]



Quote:

Format                      : MPEG-4
Format profile              : Base Media
Codec ID                    : isom (isom/avc1/mp42)
File size                   : 1.56 GiB
Duration                    : 2 h 52 min
Overall bit rate mode       : Variable
Overall bit rate            : 1 298 kb/s
Encoded date                : UTC 2017-10-17 19:32:12
Tagged date                 : UTC 2017-10-17 19:32:12

Video
ID                          : 1
Format                      : AVC
Format/Info                 : Advanced Video Codec
Format profile              : [email protected]
Format settings             : CABAC / 4 Ref Frames
Format settings, CABAC      : Yes
Format settings, ReFrames   : 4 frames
Format settings, GOP        : M=3, N=25
Codec ID                    : avc1
Codec ID/Info               : Advanced Video Coding
Duration                    : 2 h 52 min
Bit rate                    : 1 198 kb/s
Maximum bit rate            : 3 283 kb/s
Width                       : 1 280 pixels
Height                      : 720 pixels
Display aspect ratio        : 16:9
Frame rate mode             : Constant
Frame rate                  : 25.000 FPS
Color space                 : YUV
Chroma subsampling          : 4:2:0
Bit depth                   : 8 bits
Scan type                   : Progressive
Bits/(Pixel*Frame)          : 0.052
Stream size                 : 1.44 GiB (92%)
Writing library             : Zencoder Video Encoding System
Encoded date                : UTC 2017-10-17 19:02:13
Tagged date                 : UTC 2017-10-17 19:32:16
Color range                 : Limited
Color primaries             : BT.709
Transfer characteristics    : BT.709
Matrix coefficients         : BT.709

Audio
ID                          : 2
Format                      : AAC
Format/Info                 : Advanced Audio Codec
Format profile              : LC
Codec ID                    : mp4a-40-2
Duration                    : 2 h 52 min
Bit rate mode               : Variable
Bit rate                    : 96.0 kb/s
Maximum bit rate            : 112 kb/s
Channel(s)                  : 2 channels
Channel positions           : Front: L R
Sampling rate               : 48.0 kHz
Frame rate                  : 46.875 FPS (1024 SPF)
Compression mode            : Lossy
Stream size                 : 118 MiB (7%)
Encoded date                : UTC 2017-10-17 18:35:17
Tagged date                 : UTC 2017-10-17 19:32:16

 
 
 
 
 
 
[/align]
Category:Movies > Bollywood
Lang:Hindi
Total Size:1.56 GB
Info Hash:96a173b9e57d66dbc7fc80eae9837dc7fbc9cda4
Added By:TeamJio
Date Added:11-01-2018 13:31:49
Downloads:379

Ratings:Not Yet Rated (Log in to rate it)


Tracker:
udp://tracker.coppersurfer.tk:6969/announce


File List: 


Comments

No comments still posted

Top
Copyright 2018 DownloadHD -|- Page Generated In 0.825973 secs.
-|- RSS Feed -|- Feed Info
Hotel Artemis 2018 Movie Free Download HD Cam | L'Arme fatale | Ayushman Bhav