Login
Username:
Password:
[Signup]
[Recover Account]


Browse Torrents

Poll


You must be logged in to view polls



Latest Torrents
Puzzle.2018.HDRip....
- [Size: 1.43 GB]

Puzzle.2018.HDRip....
- [Size: 1.34 GB]

Sui.Dhaaga.2018.Hi...
- [Size: 3.00 GB]

The Girl in the Sp...
- [Size: 972.81 MB]

Sally4Ever.S01E01....
- [Size: 195.91 MB]


Torrent Details For "Elysium (2013) 720p Blu-Ray x264 [Dual-Audio] [English DD 5.1 + Hindi DD 2.0] - Filmiwar"

Elysium (2013) 720p Blu-Ray x264 [Dual-Audio] [English DD 5.1 + Hindi DD 2.0] - Filmiwar

Download this torrent | Magnet Download
Health:
Seeds: 0
Leechers: 10
Completed: 16 
Last Checked: 07-02-2018 15:47:16
External Torrent
Update Stats



Images Host

Poster


iMDB
Imdb Picture Title: Elysium
Year: 2013
Runtime: 109 minutes
Votes: 361463
Rating: 6.6/10
Language: English, Spanish, French, Afrikaans, Ukrainian
Country: USA
All Genres: Action, Drama, Sci-Fi, Thriller
Plot Outline: In the year 2154, the very wealthy live on a man-made space station while the rest of the population resides on a ruined Earth. A man takes on a mission that could bring equality to the polarized worlds.
Director: Neill Blomkamp
Writing By: Neill Blomkamp,
Produced By: Sue Baden-Powell,Bill Block,Neill Blomkamp,Victoria Burkhart,Simon Kinberg,Stacy Perskie,
Music: Ryan Amon
Plot:

In the year 2154, two classes of people exist: the very wealthy, who live on a pristine man-made space station called Elysium, and the rest, who live on an overpopulated, ruined Earth. Secretary Delacourt, a government official, will stop at nothing to enforce anti-immigration laws and preserve the luxurious lifestyle of the citizens of Elysium. That doesn't stop the people of Earth from trying to get in by any means they can. When unlucky Max is backed into a corner, he agrees to take on a daunting mission that, if successful, will not only save his life but could bring equality to these polarized worlds.

- Written by Production

In 2154, the population is divided in two social classes: the wealthy people live in Elysium, a space station with all the resources; the poor people live on the exhausted Earth. In Los Angeles, the former car thief Max da Costa is on parole and works in an unhealthy factory Armadyne managed by the CEO John Carlyle. He dreams of saving money to travel to Elysium. Meanwhile the Secretary of Defense of Elysium, Delacourt, plots a coup d'etat against President Patel, with the support of Carlyle. He programs a software that can override Elysium's data system and make any change, including the president's name to Delacourt. Carlyle uploads the software to his brain to increase its protection. Max is exposed to a lethal amount of radiation in Armadyne and has only five more days of life. He seeks out the criminal Spider expecting to travel to Elysium, where he can use a medical chamber called Med-bay that is capable to heal any disease and save his life. Spider tells that if Max steals profitable information, such as bank accounts, from the brain of Carlyle that is on Earth. Max accepts the proposal without knowing the powerful knowledge in Carlyle's brain. When Delacourt learns that the information she needs to become president was stolen from Carlyle brain, she sends the notorious agent Kruger to hunt down Max and recover the software at any cost.

- Written by Claudio Carvalho, Rio de Janeiro, Brazil

In the future Earth is over populated and so polluted that the wealthy and powerful create a new place to live. It's called Elysium and it's just within Earth's orbit. and they have all sorts of conveniences among them is a machine can heal anyone. So people on Earth who want to use it try to get there. But the Secretary of Defense Delacourt uses unsanctioned operatives like a man named Kruger to keep them off Elysium. Her latest attempt to keep people off Alysium catches the ire of the President who tells her to tone down her attitude and to stop using men like Kruger. Delacourt then approaches Carlyle, the head of Armadyne Corp, the company that built Elysium and all of what they use up there and asks him to make a program that would allow her to remove the President and put someone else in his position. He agrees to do it. On Earth, Max a man who has dreamed of going to Elysium and taking Frey, a girl he grew up with there. Max works for Armadyne and while at work Max is exposed to radiation and has days to live and needs to go to Elysium to use the machine. So he approaches Spider the man who gets people to Elysium for a price. But since Max can't pay him, he makes Max a proposition, he will get him there if Max gets some information out of the head of Armadyne's head. Max agrees and is fitted with an exo-skeleton to help him. They intercept Carlyle as he was leaving for Elysium to deliver the program to Delacout and get the information out of him. Delacourt would send Kruger to save Carlyle but is killed in the crossfire. Delacourt tells Kruger to get Max because he has the program in his head. And Kruger decides to get Max through Frey. When Spider sees the program he tells Max this could change the whole system but Max wants to help Frey first.

- Written by [email protected]

In the year 2154, the very wealthy live on a man-made space station while the rest of the population resides on a ruined Earth. A man takes on a mission that could bring equality to the polarized worlds.

- Written by Anonymous
Cast:
Matt Damon as Max
Jodie Foster as Delacourt
Sharlto Copley as Kruger
Alice Braga as Frey
Diego Luna as Julio
Wagner Moura as Spider
William Fichtner as John Carlyle
Brandon Auret as Drake
Josh Blacker as Crowe
Emma Tremblay as Matilda
Trailers:
Version 1
UK Trailer
Version 1
Trailer #2


Watch-Free-HD     Download

Details
Name:Elysium (2013) 720p Blu-Ray x264 [Dual-Audio] [English DD 5.1 + Hindi DD 2.0] - Filmiwar
Description:




1CnbmYmViVdxgLnhqJzp2ENzsWxnx4iUyT

-:Visit Us:-

 http://filmiwar.com/


-:@ General @:-

Format                                   : Matroska
Format version                           : Version 4 / Version 2
File size                                : 1 008 MiB
Duration                                 : 1h 49mn
Overall bit rate                         : 1 287 Kbps
Movie name                               : -: @ Filmiwar.com @ :- Elysium (2013) 720p Blu-Ray x264 [Dual-Audio] [English DD 5.1 + Hindi DD 2.0] - Filmiwar
Encoded date                             : UTC 2018-01-08 05:08:21
Attachment                               : Yes

-:@ Video @:-

ID                                       : 1
Format                                   : AVC
Format/Info                              : Advanced Video Codec
Format profile                           : [email protected]
Format settings, CABAC                   : Yes
Format settings, ReFrames                : 4 frames
Codec ID                                 : V_MPEG4/ISO/AVC
Duration                                 : 1h 49mn
Bit rate                                 : 900 Kbps
Width                                    : 1 280 pixels
Height                                   : 536 pixels
Display aspect ratio                     : 2.40:1
Frame rate mode                          : Constant
Frame rate                               : 23.976 fps
Color space                              : YUV
Chroma subsampling                       : 4:2:0
Bit depth                                : 8 bits
Scan type                                : Progressive
Bits/(Pixel*Frame)                       : 0.055
Stream size                              : 687 MiB (68%)
Title                                    : -: @ Filmiwar.com @ :-

-:@ Audio #1 @:-

ID                                       : 2
Format                                   : AC-3
Format/Info                              : Audio Coding 3
Mode extension                           : CM (complete main)
Format settings, Endianness              : Big
Codec ID                                 : A_AC3
Duration                                 : 1h 49mn
Bit rate mode                            : Constant
Bit rate                                 : 224 Kbps
Channel count                            : 2 channels
Channel positions                        : Front: L R
Sampling rate                            : 48.0 KHz
Bit depth                                : 16 bits
Compression mode                         : Lossy
Stream size                              : 176 MiB (17%)
Title                                    : -: @ Filmiwar.com @ :-
Language                                 : Hindi
Default                                  : Yes
Forced                                   : No

-:@ Audio #2 @ :-

ID                                       : 3
Format                                   : AC-3
Format/Info                              : Audio Coding 3
Mode extension                           : CM (complete main)
Format settings, Endianness              : Big
Codec ID                                 : A_AC3
Duration                                 : 1h 49mn
Bit rate mode                            : Constant
Bit rate                                 : 160 Kbps
Channel count                            : 6 channels
Channel positions                        : Front: L C R, Side: L R, LFE
Sampling rate                            : 48.0 KHz
Bit depth                                : 16 bits
Compression mode                         : Lossy
Stream size                              : 125 MiB (12%)
Title                                    : -: @ Filmiwar.com @ :-
Language                                 : English
Default                                  : No
Forced                                   : No

-:@ ScreenShots @:-













1CnbmYmViVdxgLnhqJzp2ENzsWxnx4iUyT

-:Visit Us:-

 http://filmiwar.com/


!!!...Plz Keep Seeding After Download...!!!


Category:Movies > Hollywood Dub
Lang:Hindi
Total Size:1,008.47 MB
Info Hash:6e58f7349c707ef156b98c04fc57361042096662
Added By:filmiwar
Date Added:08-01-2018 05:33:09
Downloads:355

Ratings:Not Yet Rated (Log in to rate it)


Tracker:
udp://tracker.coppersurfer.tk:6969/announce


File List: 


Comments

No comments still posted

Top
Copyright 2018 DownloadHD -|- Page Generated In 2.724337 secs.
-|- RSS Feed -|- Feed Info