Login
Username:
Password:
[Signup]
[Recover Account]


Browse Torrents

Poll


You must be logged in to view polls



Latest Torrents
Mom.S06E11.HDTV.x2...
- [Size: 142.47 MB]

Mom.S06E11.720p.HD...
- [Size: 496.39 MB]

Mom.S06E11.720p.HD...
- [Size: 529.14 MB]

Supernatural.S14E0...
- [Size: 149.74 MB]

The.Apprentice.UK....
- [Size: 806.65 MB]


Torrent Details For "Porus - Ep 15 - 1080p Untouched WebHD x264 AAC [TMB]"

Porus - Ep 15 - 1080p Untouched WebHD x264 AAC [TMB]

Download this torrent | Magnet Download
Health:
Seeds: 0
Leechers: 4
Completed:
Last Checked: 01-08-2018 12:08:28
External Torrent
Update Stats



Images Host

Poster


iMDB
Imdb Picture Title: Porus
Year: 2017
Runtime: 22 minutes
Votes: 53
Rating: 9.1/10
Language: Hindi
Country: India
All Genres: History
Plot Outline: Porus is the story of Indian warrior Porus and his life especially the Battle of the Hydaspes with the Great Alexander.
Tagline: Sar Katenge Sar Jhukenge Par Sikander Ke Irade Nahi Rukenge
Director: Kamal Monga
Siddharth Kumar Tewary
Writing By: Siddharth Kumar Tewary,
Produced By: Gayatri Gill Tewary,Rahul Kumar Tewary,Siddharth Kumar Tewary,
Music: Sangeet Haldipur Siddharth Haldipur Suryaraj Kamal Lenin Nandi Raju Singh
Cast:
Rati Pandey as Queen Anusuiya 9 episodes, 2017
Aditya Redij as King Bamni 9 episodes, 2017
Praneet Bhatt as Darius III 9 episodes, 2017
Aman Dhaliwal as Amatya Shiv Dutt 9 episodes, 2017
Gurpreet Singh as King Ambhi 8 episodes, 2017
Hrishikesh Pandey as Senapati Ripudaman 8 episodes, 2017
Sunny Ghansani as King Philip II 7 episodes, 2017
Sameksha as Queen Olympias 7 episodes, 2017
Laksh Lalwani as Porus unknown episodes
Rohit Purohit as Alexander unknown episodes


Watch-Free-HD     Download

Details
Name:Porus - Ep 15 - 1080p Untouched WebHD x264 AAC [TMB]
Description:




 



 

 

 

 

 

 

 

 

 

 

 

Info -
Porus ruled the Kingdom of Paurava in Ancient India which is situated between Chenab and Jhelum River in Punjab.  Alexander sent a messenger from Taxila to King Porus asking his submission but Porus refused and replied that his army is ready to combat.

Porus got angry with the intentions of a foreign invader and prepared his army ready for war.  His army was large and well capable to defeat an invader but the monsoon had an adverse impact on his chance to win the battle.  The chariots of his army got stuck in mud due to rain and the bowmen were not able to aim correctly. Despite this, Porus fought very bravely and got injured during the battle. His army was defeated and he was forced to surrender.

Alexander was impressed by the bravery of Porus. He asked Porus what treatment he wishes. Porus replied to treat him as a king so Alexander treated him as a friend and returned his kingdom back along with many other villages.

Episode date: 15 December 2017

Network: Sony TV

Genre: Historical

Language: Hindi



General
Complete name               : Porus - Ep 15 - 1080p Untouched WebHD x264 AAC [TMB].MP4
Format                      : MPEG-4
Format profile              : Base Media
Codec ID                    : isom (isom/iso2/avc1/mp41)
File size                   : 288 MiB
Duration                    : 25 min 0 s
Overall bit rate mode       : Variable
Overall bit rate            : 1 609 kb/s

Video
Format                      : AVC
Format/Info                 : Advanced Video Codec
Format profile              : [email protected]
Format settings             : CABAC / 3 Ref Frames
Format settings, CABAC      : Yes
Format settings, ReFrames   : 3 frames
Codec ID                    : avc1
Codec ID/Info               : Advanced Video Coding
Duration                    : 25 min 0 s
Bit rate                    : 1 480 kb/s
Width                       : 1 920 pixels
Height                      : 1 080 pixels
Display aspect ratio        : 16:9
Frame rate mode             : Constant
Frame rate                  : 25.000 FPS
Color space                 : YUV
Chroma subsampling          : 4:2:0
Bit depth                   : 8 bits
Scan type                   : Progressive
Bits/(Pixel*Frame)          : 0.029
Stream size                 : 265 MiB (92%)

Audio
Format                      : AAC
Format/Info                 : Advanced Audio Codec
Format profile              : LC
Codec ID                    : mp4a-40-2
Duration                    : 25 min 0 s
Bit rate mode               : Variable
Bit rate                    : 126 kb/s
Channel(s)                  : 2 channels
Channel positions           : Front: L R
Sampling rate               : 44.1 kHz
Frame rate                  : 43.066 FPS (1024 SPF)
Compression mode            : Lossy
Stream size                 : 22.5 MiB (8%)


Uploaded & Shared by TeamTMB

Seeding 24x7... Extreme Seeding...



Category:TV > Indian
Lang:Hindi
Total Size:287.91 MB
Info Hash:2afb823de125e76bb0489389d5637fcf358286a8
Added By:TeamTMB
Date Added:06-01-2018 19:20:13
Downloads:159

Ratings:Not Yet Rated (Log in to rate it)


Tracker:
udp://tracker.coppersurfer.tk:6969/announce


File List: 


Comments

<< Previous      Next >>
1 - 1

[Report] Posted: 08-02-2018 at 06:22:34
yatin51



gg

1 - 1
<< Previous      Next >>


Top
Copyright 2018 DownloadHD -|- Page Generated In 0.325823 secs.
-|- RSS Feed -|- Feed Info
8 K Движение вверх 2017 | The Guernsey Literary and Potato Peel Pie Society (2018) RATING 7.1 / 10 QUALITY | Recambios para coches