Login
Username:
Password:
[Signup]
[Recover Account]


Browse Torrents

Poll


You must be logged in to view polls



Latest Torrents
Sui Dhaaga.2018.Un...
- [Size: 7.16 GB]

Mirzapur S01 Compl...
- [Size: 10.12 GB]

Lupt (2018) Hindi ...
- [Size: 933.30 MB]

Live.PD.S03E18.WEB...
- [Size: 1.77 GB]

Crikey.Its.the.Irw...
- [Size: 544.45 MB]


Torrent Details For "Rascals (2011) 1080p WEBHD Team Jio Exclusive"

Rascals (2011) 1080p WEBHD Team Jio Exclusive

Download this torrent | Magnet Download
Health:
Seeds: 0
Leechers: 3
Completed:
Last Checked: 11-07-2018 00:37:53
External Torrent
Update Stats



Images Host

Poster


iMDB
Imdb Picture Title: Rascals
Year: 2011
Runtime: 128 minutes
Votes: 2065
Rating: 2.9/10
Language: Hindi, Panjabi, Gujarati, English
Country: India
All Genres: Action, Comedy, Crime, Drama
Plot Outline: Two rival con-men attempt to outdo each other to woo a wealthy woman.
Director: David Dhawan
Writing By: Sanjay Chhel,Yunus Sajawal,
Produced By: Sanjay Ahluwalia,Vinay Chowksey,Sanjay Dutt,
Music: Vishal Dadlani Atul Raninga Shekhar Ravjiani Sanjay Wandrekar
Cast:
Ajay Devgn as Bhagat Bhosle
Sanjay Dutt as Chetan Chouhan
Kangana Ranaut as Khushi
Lisa Haydon as Dolly
Arjun Rampal as Anthony Gonsalves
Satish Kaushik as Father Pascal
Hiten Paintal as Nano
Chunky Pandey as Bhagat Bholabhai Chaganmal / BBC
Bharti Achrekar as Rosy Gonsalves
Mansha Bahl as Marry Gonsalves


Watch-Free-HD     Download

Details
Name:Rascals (2011) 1080p WEBHD Team Jio Exclusive
Description:
[align=center]



Quote:

Format                      : Matroska
Format version              : Version 4 / Version 2
File size                   : 1.65 GiB
Duration                    : 1 h 59 min
Overall bit rate            : 1 975 kb/s
Movie name                  : Team Jio Exclusive
Encoded date                : UTC 2018-01-04 12:48:41
Writing application         : mkvmerge v19.0.0 ('Brave Captain') 64-bit
Writing library             : libebml v1.3.5 + libmatroska v1.4.8

Video
ID                          : 1
Format                      : AVC
Format/Info                 : Advanced Video Codec
Format profile              : [email protected]
Format settings             : CABAC / 3 Ref Frames
Format settings, CABAC      : Yes
Format settings, ReFrames   : 3 frames
Codec ID                    : V_MPEG4/ISO/AVC
Duration                    : 1 h 59 min
Bit rate                    : 1 847 kb/s
Width                       : 1 920 pixels
Height                      : 1 080 pixels
Display aspect ratio        : 16:9
Frame rate mode             : Constant
Frame rate                  : 25.000 FPS
Color space                 : YUV
Chroma subsampling          : 4:2:0
Bit depth                   : 8 bits
Scan type                   : Progressive
Bits/(Pixel*Frame)          : 0.036
Stream size                 : 1.54 GiB (94%)
Title                       : Team Jio
Default                     : Yes
Forced                      : No
Color range                 : Limited
Color primaries             : BT.709
Transfer characteristics    : BT.709
Matrix coefficients         : BT.709

Audio
ID                          : 2
Format                      : AAC
Format/Info                 : Advanced Audio Codec
Format profile              : LC
Codec ID                    : A_AAC-2
Duration                    : 1 h 59 min
Bit rate                    : 126 kb/s
Channel(s)                  : 2 channels
Channel positions           : Front: L R
Sampling rate               : 44.1 kHz
Frame rate                  : 43.066 FPS (1024 SPF)
Compression mode            : Lossy
Stream size                 : 108 MiB (6%)
Title                       : Team Jio
Language                    : Hindi
Default                     : Yes
Forced                      : No

Text
ID                          : 3
Format                      : UTF-8
Codec ID                    : S_TEXT/UTF8
Codec ID/Info               : UTF-8 Plain Text
Duration                    : 1 h 56 min
Bit rate                    : 70 b/s
Count of elements           : 2052
Stream size                 : 60.3 KiB (0%)
Title                       : Team Jio
Language                    : English
Default                     : Yes
Forced                      : No

 
 
 
 
 
[/align]
Category:Movies > Bollywood
Lang:Hindi
Total Size:1.65 GB
Info Hash:95c86302009582e698e691a55f99ddbad9668f3e
Added By:TeamJio
Date Added:04-01-2018 13:00:45
Downloads:501

Ratings:Not Yet Rated (Log in to rate it)


Tracker:
udp://tracker.coppersurfer.tk:6969/announce


File List: 


Comments

No comments still posted

Top
Copyright 2018 DownloadHD -|- Page Generated In 0.735075 secs.
-|- RSS Feed -|- Feed Info
ReiƟverschluss Reparatur Set 27 Teilig Zipper Schieber inkl. Greifringe Metall | Baixar XAPK | 1x13 Hataraku Saibou