Login
Username:
Password:
[Signup]
[Recover Account]


Browse Torrents

Poll


You must be logged in to view polls



Latest Torrents
Tosh.0.S10E20.WEB....
- [Size: 201.90 MB]

Tigers (2018) Hind...
- [Size: 698.80 MB]

Real.Country.S01E0...
- [Size: 579.76 MB]

Padmaavat.2018 72...
- [Size: 2.99 GB]

TMZ.on.TV.2018.11....
- [Size: 160.78 MB]


Torrent Details For "Garam Masala (2005) WEBHD 1080p Team Jio Exclusive"

Garam Masala (2005) WEBHD 1080p Team Jio Exclusive

Download this torrent | Magnet Download
Health:
Seeds: 0
Leechers: 2
Completed:
Last Checked: 29-05-2018 07:35:14
External Torrent
Update Stats



Images Host

Poster


iMDB
Imdb Picture Title: Garam Masala
Year: 2005
Runtime: 146 minutes
Votes: 10695
Rating: 6.8/10
Language: Hindi
Country: India
All Genres: Comedy, Romance
Plot Outline: A rib tickling tale of two flirts who constantly flirts with women despite one of them having engaged. Chaos ensues when the fiancee finds that her to-be bride is cheating on her.
Tagline: A comedy about true friends... and their true loves!
Director: Priyadarshan
Writing By: Priyadarshan,Neeraj Vora,Priyadarshan,
Produced By: Ganesh Jain,Ashok Kotwani,
Music: Pritam Chakraborty
Cast:
Akshay Kumar as Mac
John Abraham as Shyam "Sam"
Paresh Rawal as Mambo
Rimi Sen as Anjali
Neetu Chandra as Sweety, an airhostess
Nargis Bagheri as Puja, an airhostess
Daisy Bopanna as Deepti, an airhostess
Rajpal Yadav as Babban
Asrani as Mac's Maternal Uncle
Lakshmi Pandit as Model


Watch-Free-HD     Download

Details
Name:Garam Masala (2005) WEBHD 1080p Team Jio Exclusive
Description:
[align=center]



Quote:

Format                      : Matroska
Format version              : Version 4 / Version 2
File size                   : 1.27 GiB
Duration                    : 2 h 17 min
Overall bit rate            : 1 319 kb/s
Movie name                  : Team Jio Exclusive
Encoded date                : UTC 2018-01-03 08:37:07
Writing application         : mkvmerge v19.0.0 ('Brave Captain') 64-bit
Writing library             : libebml v1.3.5 + libmatroska v1.4.8

Video
ID                          : 1
Format                      : AVC
Format/Info                 : Advanced Video Codec
Format profile              : [email protected]
Format settings             : CABAC / 3 Ref Frames
Format settings, CABAC      : Yes
Format settings, ReFrames   : 3 frames
Codec ID                    : V_MPEG4/ISO/AVC
Duration                    : 2 h 17 min
Bit rate                    : 1 216 kb/s
Width                       : 1 920 pixels
Height                      : 1 080 pixels
Display aspect ratio        : 16:9
Frame rate mode             : Constant
Frame rate                  : 25.000 FPS
Color space                 : YUV
Chroma subsampling          : 4:2:0
Bit depth                   : 8 bits
Scan type                   : Progressive
Bits/(Pixel*Frame)          : 0.023
Stream size                 : 1.17 GiB (92%)
Title                       : Team Jio
Default                     : Yes
Forced                      : No
Color range                 : Limited
Color primaries             : BT.709
Transfer characteristics    : BT.709
Matrix coefficients         : BT.709

Audio
ID                          : 2
Format                      : Opus
Codec ID                    : A_OPUS
Duration                    : 2 h 17 min
Bit rate                    : 101 kb/s
Channel(s)                  : 2 channels
Channel positions           : Front: L R
Sampling rate               : 48.0 kHz
Frame rate                  : 50.000 FPS (960 SPF)
Compression mode            : Lossy
Stream size                 : 99.0 MiB (8%)
Title                       : Team Jio
Language                    : Hindi
Default                     : Yes
Forced                      : No

 
 
 
 
 
 
 
 
[/align]
Category:Movies > WEB-HD
Lang:Hindi
Total Size:1.27 GB
Info Hash:2c43b14fbc6119a3eb25fad9629bf776a61aff24
Added By:TeamJio
Date Added:03-01-2018 09:12:25
Downloads:184

Ratings:Not Yet Rated (Log in to rate it)


Tracker:
udp://tracker.coppersurfer.tk:6969/announce


File List: 


Comments

No comments still posted

Top
Copyright 2018 DownloadHD -|- Page Generated In 0.908603 secs.
-|- RSS Feed -|- Feed Info
Cadillac Deville 85-93 L├╝ftungsgitter L├╝ftungsd├╝se D├╝se vorne mitte / Air Vent | Bakuon!! | Opinion Essay