Login
Username:
Password:
[Signup]
[Recover Account]


Browse Torrents

Poll


You must be logged in to view polls



Latest Torrents
Mom.S06E11.HDTV.x2...
- [Size: 142.47 MB]

Mom.S06E11.720p.HD...
- [Size: 496.39 MB]

Mom.S06E11.720p.HD...
- [Size: 529.14 MB]

Supernatural.S14E0...
- [Size: 149.74 MB]

The.Apprentice.UK....
- [Size: 806.65 MB]


Torrent Details For "Dungeons & Dragons 3 -The Book of Vile Darkness [2012] 720p BRRip[Dual-Audio][Eng 5.1+Hindi..."

Dungeons & Dragons 3 -The Book of Vile Darkness [2012] 720p BRRip[Dual-Audio][Eng 5.1+Hindi...

Download this torrent | Magnet Download
Health:
Seeds: 0
Leechers: 72
Completed:
Last Checked: 02-01-2018 04:22:19
External Torrent
Update Stats



Images Host

Poster


Watch-Free-HD     Download

Details
Name:Dungeons & Dragons 3 -The Book of Vile Darkness [2012] 720p BRRip[Dual-Audio][Eng 5.1+Hindi...
Description:



-:General:-

Format                                   : Matroska
Format version                           : Version 4 / Version 2
File size                                : 1.08 GiB
Duration                                 : 1h 30mn
Overall bit rate                         : 1 718 Kbps
Movie name                               : Visit @ Filmiwar.com @ Dungeons & Dragons 3 -The Book of Vile Darkness [2012] 720p BRRip[Dual-Audio][Eng 5.1+Hindi5.1] - Filmiwar
Encoded date                             : UTC 2018-01-01 05:36:46
Attachment                               : Yes

-:Video:-

ID                                       : 1
Format                                   : AVC
Format/Info                              : Advanced Video Codec
Format profile                           : [email protected]
Format settings, CABAC                   : Yes
Format settings, ReFrames                : 3 frames
Codec ID                                 : V_MPEG4/ISO/AVC
Duration                                 : 1h 30mn
Bit rate                                 : 1 462 Kbps
Width                                    : 1 280 pixels
Height                                   : 720 pixels
Display aspect ratio                     : 16:9
Frame rate mode                          : Constant
Frame rate                               : 23.976 fps
Color space                              : YUV
Chroma subsampling                       : 4:2:0
Bit depth                                : 8 bits
Scan type                                : Progressive
Bits/(Pixel*Frame)                       : 0.066
Stream size                              : 919 MiB (83%)
Title                                    : Visit @ Filmiwar.com @
Language                                 : English
Default                                  : Yes
Forced                                   : No

-:Audio #1:-

ID                                       : 2
Format                                   : AC-3
Format/Info                              : Audio Coding 3
Mode extension                           : CM (complete main)
Format settings, Endianness              : Big
Codec ID                                 : A_AC3
Duration                                 : 1h 30mn
Bit rate mode                            : Constant
Bit rate                                 : 128 Kbps
Channel count                            : 6 channels
Channel positions                        : Front: L C R, Side: L R, LFE
Sampling rate                            : 48.0 KHz
Bit depth                                : 16 bits
Compression mode                         : Lossy
Delay relative to video                  : 12ms
Stream size                              : 82.4 MiB (7%)
Title                                    : Visit @ Filmiwar.com @
Language                                 : Hindi
Default                                  : Yes
Forced                                   : No

-:Audio #2:-

ID                                       : 3
Format                                   : AC-3
Format/Info                              : Audio Coding 3
Mode extension                           : CM (complete main)
Format settings, Endianness              : Big
Codec ID                                 : A_AC3
Duration                                 : 1h 30mn
Bit rate mode                            : Constant
Bit rate                                 : 128 Kbps
Channel count                            : 6 channels
Channel positions                        : Front: L C R, Side: L R, LFE
Sampling rate                            : 48.0 KHz
Bit depth                                : 16 bits
Compression mode                         : Lossy
Stream size                              : 82.4 MiB (7%)
Title                                    : Visit @ Filmiwar.com @
Language                                 : English
Default                                  : No
Forced                                   : No


-:ScreenShots:-














1CnbmYmViVdxgLnhqJzp2ENzsWxnx4iUyT

-:Visit Us:-

 http://filmiwar.com/


!!!...Plz Keep Seeding After Download...!!!



Category:Movies > Hollywood Dub
Lang:Hindi
Total Size:1.08 GB
Info Hash:a2a177a0b1964eb6c34ca8d26b6e44ee5e9b4e37
Added By:filmiwar
Date Added:01-01-2018 06:07:36
Downloads:338

Ratings:Not Yet Rated (Log in to rate it)


Tracker:
udp://tracker.coppersurfer.tk:6969/announce


File List: 


Comments

No comments still posted

Top
Copyright 2018 DownloadHD -|- Page Generated In 2.165212 secs.
-|- RSS Feed -|- Feed Info
RuPaul's Drag Race - Season 6 | gamearena.io | Falling Skies