Login
Username:
Password:
[Signup]
[Recover Account]


Browse Torrents

Poll


You must be logged in to view polls



Latest Torrents
Tigers (2018) Hind...
- [Size: 698.80 MB]

Real.Country.S01E0...
- [Size: 579.76 MB]

Padmaavat.2018 72...
- [Size: 2.99 GB]

TMZ.on.TV.2018.11....
- [Size: 160.78 MB]

New.Amsterdam.2018...
- [Size: 217.38 MB]


Torrent Details For "Shudhu Tomari Jonyo (2015) 1080p Untouched WEBHD AVC AAC [DDR]"

Shudhu Tomari Jonyo (2015) 1080p Untouched WEBHD AVC AAC [DDR]

Download this torrent | Magnet Download
Health:
Seeds: 0
Leechers: 1
Completed:
Last Checked: 06-10-2018 16:19:11
External Torrent
Update Stats



Images Host

Poster


iMDB
Imdb Picture Title: Shudhu Tomari Jonyo
Year: 2015
Runtime: 149 minutes
Votes: 242
Rating: 6.6/10
Language: Bengali
Country: India
All Genres: Drama, Romance
Plot Outline: Newlyweds who hate each other come to terms with each other and their past.
Director: Birsa Dasgupta
Writing By: Birsa Dasgupta,
Produced By: Shrikant Mohta,Srikant Mohta,Mahendra Soni,
Music: Arindom Chatterjee Indraadip Dasgupta
Plot:

Adi (Dev) and Nayantara (Srabanti) get married to please their respective families. But both are stuck in their past. Nayan still thinks of Shiraj (Soham), who deserts her on the day of their wedding. Adi, too, finds it difficult to reconcile with the death of his girlfriend, Koli. Can they stay together?

- Written by Sohom Pramanick

Newlyweds who hate each other come to terms with each other and their past.

- Written by Sandip Dutta
Cast:
Dev as Adi Sen
Srabanti Chatterjee as Nayantara Sen
Soham Chakraborty as Shiraz Chowdhury
Mimi Chakraborty as Koli
Biswanath Basu as
Sneha Chatropadhyay as
Arindam Sil as
Supriyo Dutta as
Kharaj Mukherjee as
Kanchan Mullick as


Watch-Free-HD     Download

Details
Name:Shudhu Tomari Jonyo (2015) 1080p Untouched WEBHD AVC AAC [DDR]
Description:
Media Info

Format                      : Matroska
Format version              : Version 4 / Version 2
File size                   : 5.78 GiB
Duration                    : 2 h 22 min
Overall bit rate            : 5 807 kb/s
Encoded date                : UTC 2017-04-02 09:16:11
Writing application         : mkvmerge v9.9.0 ('Pick Up') 64bit
Writing library             : libebml v1.3.4 + libmatroska v1.4.5

Video
ID                          : 1
Format                      : AVC
Format/Info                 : Advanced Video Codec
Format profile              : [email protected]
Format settings, CABAC      : Yes
Format settings, ReFrames   : 1 frame
Format settings, GOP        : M=1, N=25
Codec ID                    : V_MPEG4/ISO/AVC
Duration                    : 2 h 22 min
Bit rate mode               : Constant
Bit rate                    : 5 679 kb/s
Nominal bit rate            : 6 000 kb/s
Width                       : 1 920 pixels
Height                      : 1 080 pixels
Display aspect ratio        : 16:9
Frame rate mode             : Constant
Frame rate                  : 25.000 FPS
Color space                 : YUV
Chroma subsampling          : 4:2:0
Bit depth                   : 8 bits
Scan type                   : Progressive
Bits/(Pixel*Frame)          : 0.110
Stream size                 : 5.65 GiB (98%)
Default                     : Yes
Forced                      : No

Audio
ID                          : 2
Format                      : AAC
Format/Info                 : Advanced Audio Codec
Format profile              : LC
Codec ID                    : A_AAC
Duration                    : 2 h 22 min
Bit rate                    : 125 kb/s
Channel(s)                  : 2 channels
Channel positions           : Front: L R
Sampling rate               : 48.0 kHz
Frame rate                  : 46.875 FPS (1024 spf)
Compression mode            : Lossy
Stream size                 : 128 MiB (2%)
Default                     : Yes
Forced                      : No

Screenshots






Category:Movies > Bengali
Lang:Bengali  Bengali
Total Size:5.78 GB
Info Hash:b6e0f4d037b28e9bd9b232dad1b1ddc0387e5580
Added By:gjnabin
Date Added:27-05-2017 11:12:23
Downloads:555

Ratings:Not Yet Rated (Log in to rate it)


Tracker:
udp://tracker.coppersurfer.tk:6969/announce


File List: 


Comments

No comments still posted

Top
Copyright 2018 DownloadHD -|- Page Generated In 3.951008 secs.
-|- RSS Feed -|- Feed Info
Jidousha_Shakai_v02 11 18_setup exe | Π ΠΎΠΌΠ°Π½Ρ‚ΠΈΠΊΠ° | Hum Hain Na