Login
Username:
Password:
[Signup]
[Recover Account]


Browse Torrents

Poll


You must be logged in to view polls



Latest Torrents
Hunter.Killer.2018...
- [Size: 1.31 GB]

Hunter.Killer.2018...
- [Size: 1.31 GB]

A.Boy.A.Girl.A.Dre...
- [Size: 3.69 GB]

Christmas.Presence...
- [Size: 4.02 GB]

The.Case.That.Haun...
- [Size: 234.82 MB]


Torrent Details For "Ram-Avtar (1988) Hindi 1080p HDRip x264 AAC.-.Link2download"

Ram-Avtar (1988) Hindi 1080p HDRip x264 AAC.-.Link2download

Download this torrent | Magnet Download
Health:
Seeds: 0
Leechers: 0
Completed:
Last Checked: 19-11-2018 00:45:46
External Torrent
Update Stats



Images Host

Poster


iMDB
Imdb Picture Title: Ram-Avtar
Year: 1988
Runtime: 170 minutes
Votes: 155
Rating: 4.6/10
Language: Hindi
Country: India
All Genres: Action, Drama, Romance
Plot Outline: Ram and Avtar are both childhood best friends. The difference between the two friends is that Ram would willingly make priceless sacrifice for his friend; the time when both are separated ...
Director: Sunil Hingorani
Writing By: Anwar Khan,Mansood Saharanpuri,Khalid Siddiqui,Khalid Siddiqui,
Produced By: Anil Hingorani,
Music: Laxmikant Shantaram Kudalkar Pyarelal Ramprasad Sharma
Cast:
Sunny Deol as Ram
Anil Kapoor as Avtar
Sridevi as Sangeeta 'Shano'
Shakti Kapoor as Gundappa Swami
Manik Irani as Marconi
Bharat Bhushan as Ram's Grandfather
Subbiraj as Sangeeta's Father
Yunus Parvez as Sangeeta's Accountant
Dinesh Hingoo as Gangiya
Mushtaq Merchant as Pestonji


Watch-Free-HD     Download

Details
Name:Ram-Avtar (1988) Hindi 1080p HDRip x264 AAC.-.Link2download
Description:




Format                      : Matroska
Format version              : Version 4 / Version 2
File size                   : 2.82 GiB
Duration                    : 2 h 44 min
Overall bit rate            : 2 455 kb/s
Encoded date                : UTC 2017-12-28 16:27:35
Writing application         : mkvmerge v7.0.0 ('Where We Going') 64bit built on Jun  9 2014 15:16:27
Writing library             : libebml v1.3.0 + libmatroska v1.4.1

Video
ID                          : 1
Format                      : AVC
Format/Info                 : Advanced Video Codec
Format profile              : [email protected]
Format settings             : CABAC / 4 Ref Frames
Format settings, CABAC      : Yes
Format settings, ReFrames   : 4 frames
Codec ID                    : V_MPEG4/ISO/AVC
Duration                    : 2 h 44 min
Bit rate                    : 2 327 kb/s
Width                       : 1 920 pixels
Height                      : 820 pixels
Display aspect ratio        : 2.35:1
Frame rate mode             : Constant
Frame rate                  : 23.976 (24000/1001) FPS
Color space                 : YUV
Chroma subsampling          : 4:2:0
Bit depth                   : 8 bits
Scan type                   : Progressive
Bits/(Pixel*Frame)          : 0.062
Stream size                 : 2.67 GiB (95%)
Default                     : Yes
Forced                      : No
Color range                 : Limited
Color primaries             : BT.709
Transfer characteristics    : BT.709
Matrix coefficients         : BT.709

Audio
ID                          : 2
Format                      : AAC
Format/Info                 : Advanced Audio Codec
Format profile              : LC
Codec ID                    : A_AAC-2
Duration                    : 2 h 44 min
Bit rate                    : 126 kb/s
Channel(s)                  : 2 channels
Channel positions           : Front: L R
Sampling rate               : 44.1 kHz
Frame rate                  : 43.066 FPS (1024 SPF)
Compression mode            : Lossy
Delay relative to video     : 9 ms
Stream size                 : 147 MiB (5%)
Default                     : Yes
Forced                      : No





                         




Category:Movies > Bollywood
Lang:Hindi
Total Size:2.82 GB
Info Hash:3e6d01fa2aea94bc8bb763a7a71533b3eb045fb4
Added By:link2download
Date Added:29-12-2017 12:00:37
Downloads:501

Ratings:Not Yet Rated (Log in to rate it)


Tracker:
udp://tracker.opentrackr.org:1337/announce

This Torrent also has backup trackers
URLSeedersLeechersCompleted
http://ipv4.tracker.harry.lu/announce9253
http://ipv4.tracker.harry.lu:80/announce9253
http://t.nyaatracker.com/announce1194
http://open.kickasstracker.com/announce040
http://open.kickasstracker.com:443/announce040
http://t.nyaatracker.com:80/announce000
http://share.camoe.cn:8080/announce000
http://torrentsmd.com:8080/announce010


File List: 


Comments

No comments still posted

Top
Copyright 2018 DownloadHD -|- Page Generated In 2.006750 secs.
-|- RSS Feed -|- Feed Info
Season 0 Episode 37 Game Revealed: Season 7 Episode 4 | Aurore HDRIP VF | Demonstrative Communicat...